  0
SECTION
  2
HEADER
  9
$ACADVER
  1
AC1009
  9
$INSBASE
 10
0.0
 20
0.0
 30
0.0
  9
$EXTMIN
 10
-0.0014600384760115
 20
-0.0006408202469359
 30
-0.0002632378077152
  9
$EXTMAX
 10
32.501476158841498
 20
21.000640918035799
 30
0.0003948968814917
  9
$LIMMIN
 10
0.0
 20
0.0
  9
$LIMMAX
 10
11.0
 20
8.5
  9
$ORTHOMODE
 70
     0
  9
$REGENMODE
 70
     1
  9
$FILLMODE
 70
     1
  9
$QTEXTMODE
 70
     0
  9
$MIRRTEXT
 70
     1
  9
$DRAGMODE
 70
     2
  9
$LTSCALE
 40
0.1
  9
$OSMODE
 70
    39
  9
$ATTMODE
 70
     1
  9
$TEXTSIZE
 40
0.09
  9
$TRACEWID
 40
0.05
  9
$TEXTSTYLE
  7
ARIAL
  9
$CLAYER
  8
DIMENSIONS
  9
$CELTYPE
  6
BYLAYER
  9
$CECOLOR
 62
   256
  9
$DIMSCALE
 40
1.0
  9
$DIMASZ
 40
0.125
  9
$DIMEXO
 40
0.09
  9
$DIMDLI
 40
0.0
  9
$DIMRND
 40
0.0
  9
$DIMDLE
 40
0.0
  9
$DIMEXE
 40
0.0599999999999999
  9
$DIMTP
 40
0.0
  9
$DIMTM
 40
0.0
  9
$DIMTXT
 40
0.0899999999999999
  9
$DIMCEN
 40
0.04
  9
$DIMTSZ
 40
0.0
  9
$DIMTOL
 70
     0
  9
$DIMLIM
 70
     0
  9
$DIMTIH
 70
     0
  9
$DIMTOH
 70
     0
  9
$DIMSE1
 70
     0
  9
$DIMSE2
 70
     0
  9
$DIMTAD
 70
     1
  9
$DIMZIN
 70
     0
  9
$DIMBLK
  1

  9
$DIMASO
 70
     1
  9
$DIMSHO
 70
     1
  9
$DIMPOST
  1

  9
$DIMAPOST
  1
mm
  9
$DIMALT
 70
     1
  9
$DIMALTD
 70
     1
  9
$DIMALTF
 40
25.399999999999999
  9
$DIMLFAC
 40
1.0
  9
$DIMTOFL
 70
     0
  9
$DIMTVP
 40
0.0
  9
$DIMTIX
 70
     0
  9
$DIMSOXD
 70
     0
  9
$DIMSAH
 70
     0
  9
$DIMBLK1
  1

  9
$DIMBLK2
  1

  9
$DIMSTYLE
  2
3_DIGIT_STD
  9
$DIMCLRD
 70
   256
  9
$DIMCLRE
 70
   256
  9
$DIMCLRT
 70
   256
  9
$DIMTFAC
 40
1.0
  9
$DIMGAP
 40
0.045
  9
$LUNITS
 70
     3
  9
$LUPREC
 70
     3
  9
$SKETCHINC
 40
0.1
  9
$FILLETRAD
 40
0.0
  9
$AUNITS
 70
     0
  9
$AUPREC
 70
     0
  9
$MENU
  1
acad
  9
$ELEVATION
 40
0.0
  9
$PELEVATION
 40
0.0
  9
$THICKNESS
 40
0.0
  9
$LIMCHECK
 70
     0
  9
$BLIPMODE
 70
     0
  9
$CHAMFERA
 40
0.375
  9
$CHAMFERB
 40
0.375
  9
$SKPOLY
 70
     0
  9
$TDCREATE
 40
2450997.6115194438
  9
$TDUPDATE
 40
2453711.7051201151
  9
$TDINDWG
 40
0.5604715509
  9
$TDUSRTIMER
 40
0.5604715509
  9
$USRTIMER
 70
     1
  9
$ANGBASE
 50
0.0
  9
$ANGDIR
 70
     0
  9
$PDMODE
 70
     0
  9
$PDSIZE
 40
0.0
  9
$PLINEWID
 40
0.03
  9
$COORDS
 70
     1
  9
$SPLFRAME
 70
     0
  9
$SPLINETYPE
 70
     6
  9
$SPLINESEGS
 70
     8
  9
$ATTDIA
 70
     0
  9
$ATTREQ
 70
     1
  9
$HANDLING
 70
 10241
  9
$HANDSEED
  5
2D04
  9
$SURFTAB1
 70
     6
  9
$SURFTAB2
 70
     6
  9
$SURFTYPE
 70
     6
  9
$SURFU
 70
     6
  9
$SURFV
 70
     6
  9
$UCSNAME
  2

  9
$UCSORG
 10
0.0
 20
0.0
 30
0.0
  9
$UCSXDIR
 10
1.0
 20
0.0
 30
0.0
  9
$UCSYDIR
 10
0.0
 20
1.0
 30
0.0
  9
$PUCSNAME
  2

  9
$PUCSORG
 10
0.0
 20
0.0
 30
0.0
  9
$PUCSXDIR
 10
1.0
 20
0.0
 30
0.0
  9
$PUCSYDIR
 10
0.0
 20
1.0
 30
0.0
  9
$USERI1
 70
     0
  9
$USERI2
 70
     0
  9
$USERI3
 70
     0
  9
$USERI4
 70
     0
  9
$USERI5
 70
     0
  9
$USERR1
 40
0.0
  9
$USERR2
 40
0.0
  9
$USERR3
 40
0.0
  9
$USERR4
 40
0.0
  9
$USERR5
 40
0.0
  9
$WORLDVIEW
 70
     1
  9
$SHADEDGE
 70
     3
  9
$SHADEDIF
 70
    70
  9
$TILEMODE
 70
     1
  9
$MAXACTVP
 70
    16
  9
$PLIMCHECK
 70
     0
  9
$PEXTMIN
 10
1.0000000000000000E+020
 20
1.0000000000000000E+020
 30
1.0000000000000000E+020
  9
$PEXTMAX
 10
-1.0000000000000000E+020
 20
-1.0000000000000000E+020
 30
-1.0000000000000000E+020
  9
$PLIMMIN
 10
0.0
 20
0.0
  9
$PLIMMAX
 10
12.0
 20
9.0
  9
$UNITMODE
 70
     0
  9
$VISRETAIN
 70
     0
  9
$PLINEGEN
 70
     0
  9
$PSLTSCALE
 70
     1
  0
ENDSEC
  0
SECTION
  2
TABLES
  0
TABLE
  2
VPORT
 70
     7
  0
VPORT
  2
*ACTIVE
 70
     0
 10
0.0
 20
0.0
 11
1.0
 21
1.0
 12
16.25000806018274
 22
10.50000004889443
 13
0.0
 23
0.0
 14
1.0
 24
1.0
 15
0.0
 25
0.0
 16
0.0
 26
0.0
 36
1.0
 17
0.0
 27
0.0
 37
0.0
 40
21.137506268477011
 41
1.6320346320346311
 42
50.0
 43
0.0
 44
0.0
 50
0.0
 51
0.0
 71
     0
 72
   100
 73
     1
 74
     1
 75
     0
 76
     0
 77
     0
 78
     0
  0
ENDTAB
  0
TABLE
  2
LTYPE
 70
     2
  0
LTYPE
  2
CONTINUOUS
 70
     0
  3
Solid line
 72
    65
 73
     0
 40
0.0
  0
LTYPE
  2
CENTER
 70
     0
  3
Center ____ _ ____ _ ____ _ ____ _ ____ _ ____
 72
    65
 73
     4
 40
2.0
 49
1.25
 49
-0.25
 49
0.25
 49
-0.25
  0
ENDTAB
  0
TABLE
  2
LAYER
 70
    11
  0
LAYER
  2
0
 70
     0
 62
     7
  6
CONTINUOUS
  0
LAYER
  2
BORDER
 70
     0
 62
     7
  6
CONTINUOUS
  0
LAYER
  2
DIMENSIONS
 70
     0
 62
     7
  6
CONTINUOUS
  0
LAYER
  2
TITLE
 70
     0
 62
     7
  6
CONTINUOUS
  0
LAYER
  2
DEFPOINTS
 70
     0
 62
     7
  6
CONTINUOUS
  0
LAYER
  2
BORDER_TEXT
 70
     0
 62
     7
  6
CONTINUOUS
  0
LAYER
  2
2X4TOP
 70
     0
 62
     1
  6
CONTINUOUS
  0
LAYER
  2
2X4BTM
 70
     0
 62
     5
  6
CONTINUOUS
  0
LAYER
  2
CENTER
 70
     0
 62
     1
  6
CENTER
  0
LAYER
  2
CENTER_FOOT
 70
     0
 62
     7
  6
CONTINUOUS
  0
ENDTAB
  0
TABLE
  2
STYLE
 70
     4
  0
STYLE
  2
STANDARD
 70
     0
 40
0.0
 41
1.0
 50
0.0
 71
     0
 42
0.2
  3
txt
  4

  0
STYLE
  2
ROMAND
 70
     0
 40
0.09
 41
0.8
 50
0.0
 71
     0
 42
0.09
  3
romand
  4

  0
STYLE
  2
ARIAL
 70
     0
 40
0.09
 41
0.55
 50
0.0
 71
     0
 42
0.09
  3
txt
  4

  0
STYLE
  2
ROMAN
 70
     0
 40
0.0
 41
1.0
 50
0.0
 71
     0
 42
0.25
  3
romans
  4

  0
ENDTAB
  0
TABLE
  2
VIEW
 70
     0
  0
ENDTAB
  0
TABLE
  2
UCS
 70
     0
  0
ENDTAB
  0
TABLE
  2
APPID
 70
     2
  0
APPID
  2
ACAD
 70
     0
  0
APPID
  2
DCO15
 70
     0
  0
ENDTAB
  0
TABLE
  2
DIMSTYLE
 70
     3
  0
DIMSTYLE
  2
3_DIGIT_STD
 70
     0
  3

  4
mm
  5

  6

  7

 40
1.0
 41
0.125
 42
0.09
 43
0.0
 44
0.0599999999999999
 45
0.0
 46
0.0
 47
0.0
 48
0.0
140
0.0899999999999999
141
0.04
142
0.0
143
25.399999999999999
144
1.0
145
0.0
146
1.0
147
0.045
 71
     0
 72
     0
 73
     0
 74
     0
 75
     0
 76
     0
 77
     1
 78
     0
170
     1
171
     1
172
     0
173
     0
174
     0
175
     0
176
   256
177
   256
178
   256
  0
DIMSTYLE
  2
STANDARD
 70
     0
  3

  4

  5

  6

  7

 40
1.0
 41
0.18
 42
0.0625
 43
0.38
 44
0.18
 45
0.0
 46
0.0
 47
0.0
 48
0.0
140
0.18
141
0.09
142
0.0
143
25.399999999999999
144
1.0
145
0.0
146
1.0
147
0.09
 71
     0
 72
     0
 73
     1
 74
     1
 75
     0
 76
     0
 77
     0
 78
     0
170
     0
171
     2
172
     0
173
     0
174
     0
175
     0
176
     0
177
     0
178
     0
  0
ENDTAB
  0
ENDSEC
  0
SECTION
  2
BLOCKS
  0
BLOCK
  8
0
  2
$MODEL_SPACE
 70
     0
 10
0.0
 20
0.0
 30
0.0
  3
$MODEL_SPACE
  1

  0
ENDBLK
  5
30
  8
0
  0
BLOCK
 67
     1
  8
0
  2
$PAPER_SPACE
 70
     0
 10
0.0
 20
0.0
 30
0.0
  3
$PAPER_SPACE
  1

  0
ENDBLK
  5
2E
 67
     1
  8
0
  0
BLOCK
  8
0
  2
*D1
 70
     1
 10
0.0
 20
0.0
 30
0.0
  3
*D1
  1

  0
LINE
  5
2BD1
  8
DIMENSIONS
 10
12.08261174542398
 20
15.27601108978728
 30
0.0
 11
13.086616979246431
 21
15.27601108978728
 31
0.0
  0
LINE
  5
2BD2
  8
DIMENSIONS
 10
12.08261174542398
 20
19.276011089787321
 30
0.0
 11
13.086616979246431
 21
19.276011089787321
 31
0.0
  0
LINE
  5
2BD3
  8
DIMENSIONS
 10
13.02661697924643
 20
15.40101108978728
 30
0.0
 11
13.02661697924643
 21
19.151011089787321
 31
0.0
  0
SOLID
  5
2BD4
  8
DIMENSIONS
 10
13.005783645913089
 20
15.40101108978728
 30
0.0
 11
13.047450312579761
 21
15.40101108978728
 31
0.0
 12
13.02661697924643
 22
15.27601108978728
 32
0.0
 13
13.02661697924643
 23
15.27601108978728
 33
0.0
  0
SOLID
  5
2BD5
  8
DIMENSIONS
 10
13.005783645913089
 20
19.151011089787321
 30
0.0
 11
13.047450312579761
 21
19.151011089787321
 31
0.0
 12
13.02661697924643
 22
19.276011089787321
 32
0.0
 13
13.02661697924643
 23
19.276011089787321
 33
0.0
  0
TEXT
  5
2BD6
  8
DIMENSIONS
 10
12.94304555067499
 20
16.877687419148689
 30
0.0
 40
0.09
  1
4.000 [101.6mm]
 50
90.0
 41
0.8
  7
ROMAND
  0
POINT
  5
2BD7
  8
DEFPOINTS
 62
     0
 10
11.99261174542398
 20
15.27601108978728
 30
0.0000000000000029
  0
POINT
  5
2BD8
  8
DEFPOINTS
 62
     0
 10
11.99261174542398
 20
19.276011089787321
 30
0.0000000000000029
  0
POINT
  5
2BD9
  8
DEFPOINTS
 62
     0
 10
13.02661697924643
 20
19.276011089787321
 30
0.0
  0
ENDBLK
  5
2BDB
  8
0
  0
BLOCK
  8
0
  2
*D2
 70
     1
 10
0.0
 20
0.0
 30
0.0
  3
*D2
  1

  0
LINE
  5
2BDE
  8
DIMENSIONS
 10
30.2489660222022
 20
10.529061768260711
 30
0.0
 11
30.787019054941339
 21
10.529061768260711
 31
0.0
  0
LINE
  5
2BDF
  8
DIMENSIONS
 10
28.693214969378889
 20
12.529061768260711
 30
0.0
 11
30.787019054941339
 21
12.529061768260711
 31
0.0
  0
LINE
  5
2BE0
  8
DIMENSIONS
 10
30.727019054941341
 20
10.654061768260711
 30
0.0
 11
30.727019054941341
 21
12.404061768260711
 31
0.0
  0
SOLID
  5
2BE1
  8
DIMENSIONS
 10
30.706185721608009
 20
10.654061768260711
 30
0.0
 11
30.747852388274669
 21
10.654061768260711
 31
0.0
 12
30.727019054941341
 22
10.529061768260711
 32
0.0
 13
30.727019054941341
 23
10.529061768260711
 33
0.0
  0
SOLID
  5
2BE2
  8
DIMENSIONS
 10
30.706185721608009
 20
12.404061768260711
 30
0.0
 11
30.747852388274669
 21
12.404061768260711
 31
0.0
 12
30.727019054941341
 22
12.529061768260711
 32
0.0
 13
30.727019054941341
 23
12.529061768260711
 33
0.0
  0
TEXT
  5
2BE3
  8
DIMENSIONS
 10
30.643447626369909
 20
11.193019292952551
 30
0.0
 40
0.09
  1
2.000 [50.8mm]
 50
90.0
 41
0.8
  7
ROMAND
  0
POINT
  5
2BE4
  8
DEFPOINTS
 62
     0
 10
30.1589660222022
 20
10.529061768260711
 30
0.0
  0
POINT
  5
2BE5
  8
DEFPOINTS
 62
     0
 10
28.603214969378879
 20
12.529061768260711
 30
0.0
  0
POINT
  5
2BE6
  8
DEFPOINTS
 62
     0
 10
30.727019054941341
 20
12.529061768260711
 30
0.0
  0
ENDBLK
  5
2BE8
  8
0
  0
BLOCK
  8
0
  2
*U3
 70
     1
 10
0.0
 20
0.0
 30
0.0
  3
*U3
  1

  0
TEXT
  5
2C31
  8
DIMENSIONS
 10
29.142243293059369
 20
2.0044685862397862
 30
0.0
 40
0.045
  1
THE INFORMATION CONTAINED WITHIN IS THE PROPERTY OF THE DROID 
 41
0.8
  7
ROMAND
  0
TEXT
  5
2C32
  8
DIMENSIONS
 10
29.138814721630808
 20
1.929468586239786
 30
0.0
 40
0.045
  1
BUILDERS GROUP.  ANY UNAUTHORIZED USE, REPRODUCTION, MODIFICATION 
 41
0.8
  7
ROMAND
  0
TEXT
  5
2C33
  8
DIMENSIONS
 10
29.138814721630808
 20
1.8544685862397861
 30
0.0
 40
0.045
  1
DESTRUCTION, DISCLOSURE OR TRANSFER TO ELECTRONIC OR OTHER MEDIA OR 
 41
0.8
  7
ROMAND
  0
TEXT
  5
2C34
  8
DIMENSIONS
 10
29.142243293059369
 20
1.7794685862397861
 30
0.0
 40
0.045
  1
THEFT WILL RESULT IN BAD DROID KARMA
 41
0.8
  7
ROMAND
  0
ENDBLK
  5
2C36
  8
0
  0
BLOCK
  8
0
  2
*U4
 70
     1
 10
0.0
 20
0.0
 30
0.0
  3
*U4
  1

  0
TEXT
  5
2C38
  8
DIMENSIONS
 10
29.157432610803539
 20
1.652759604310841
 30
0.0
 40
0.06328125
  1
Star Wars, and all related titles, images, characters, logos, etc are © Copyright and ® Registered 
 41
0.55
  7
ARIAL
  0
TEXT
  5
2C39
  8
DIMENSIONS
 10
29.154195549024521
 20
1.5456939950822901
 30
0.0
 40
0.06328125
  1
Trademarks of Lucasfilm Limited. This page is neither owned nor endorsed by Lucasfilm Ltd. The material 
 41
0.55
  7
ARIAL
  0
TEXT
  5
2C3A
  8
DIMENSIONS
 10
29.156378683712688
 20
1.438628385853739
 30
0.0
 40
0.06328125
  1
contained herein is unofficial, and is not intended for sale. It in no way can be deemed a contest of the rights 
 41
0.55
  7
ARIAL
  0
TEXT
  5
2C3B
  8
DIMENSIONS
 10
29.156579431730002
 20
1.3315627766251881
 30
0.0
 40
0.06328125
  1
and ownership of Lucasfilm Ltd., or licensees thereof. Any use of any of these materials for other than for 
 41
0.55
  7
ARIAL
  0
TEXT
  5
2C3C
  8
DIMENSIONS
 10
29.163455051322639
 20
1.2244971673966369
 30
0.0
 40
0.06328125
  1
private, non-commercial viewing purposes is strictly prohibited. This drawing Copywrite 2004. Astromechs. 
 41
0.55
  7
ARIAL
  0
TEXT
  5
2C3D
  8
DIMENSIONS
 10
29.160293270050111
 20
1.117431558168086
 30
0.0
 40
0.06328125
  1
All rights reserved.
 41
0.55
  7
ARIAL
  0
ENDBLK
  5
2C3F
  8
0
  0
BLOCK
  8
0
  2
*X5
 70
     1
 10
0.0
 20
0.0
 30
0.0
  3
*X5
  1

  0
LINE
  5
2C5A
  8
0
 62
     0
 10
11.83897964347762
 20
10.958852992868771
 30
0.0
 11
12.170831846452449
 21
11.290705195843589
 31
0.0
  0
LINE
  5
2C5B
  8
0
 62
     0
 10
11.30864955758771
 20
10.958852992868771
 30
0.0
 11
12.17083184645244
 21
11.821035281733501
 31
0.0
  0
LINE
  5
2C5C
  8
0
 62
     0
 10
10.77831947169779
 20
10.958852992868779
 30
0.0
 11
12.17083184645244
 21
12.35136536762343
 31
0.0
  0
LINE
  5
2C5D
  8
0
 62
     0
 10
10.247989385807889
 20
10.958852992868779
 30
0.0
 11
12.17083184645243
 21
12.881695453513331
 31
0.0
  0
LINE
  5
2C5E
  8
0
 62
     0
 10
9.7176592999179974
 20
10.958852992868779
 30
0.0
 11
12.17083184645244
 21
13.41202553940324
 31
0.0
  0
LINE
  5
2C5F
  8
0
 62
     0
 10
9.1873292140280824
 20
10.958852992868771
 30
0.0
 11
12.17083184645244
 21
13.94235562529313
 31
0.0
  0
LINE
  5
2C60
  8
0
 62
     0
 10
8.6569991281381675
 20
10.958852992868771
 30
0.0
 11
12.17083184645244
 21
14.47268571118304
 31
0.0
  0
LINE
  5
2C61
  8
0
 62
     0
 10
8.1266690422482526
 20
10.958852992868771
 30
0.0
 11
11.783507540565219
 21
14.615691491185739
 31
0.0
  0
LINE
  5
2C62
  8
0
 62
     0
 10
7.8539129014367566
 20
11.21642693794719
 30
0.0
 11
11.253177454675299
 21
14.615691491185739
 31
0.0
  0
LINE
  5
2C63
  8
0
 62
     0
 10
7.5963389563583368
 20
10.958852992868771
 30
0.0
 11
7.8539129014367566
 21
11.21642693794719
 31
0.0
  0
LINE
  5
2C64
  8
0
 62
     0
 10
7.8539129014367566
 20
11.7467570238371
 30
0.0
 11
10.72284736878539
 21
14.61569149118575
 31
0.0
  0
LINE
  5
2C65
  8
0
 62
     0
 10
7.0660088704684219
 20
10.958852992868779
 30
0.0
 11
7.8539129014367566
 21
11.7467570238371
 31
0.0
  0
LINE
  5
2C66
  8
0
 62
     0
 10
7.8539129014367708
 20
12.27708710972702
 30
0.0
 11
10.192517282895491
 21
14.61569149118575
 31
0.0
  0
LINE
  5
2C67
  8
0
 62
     0
 10
6.5356787845785362
 20
10.958852992868779
 30
0.0
 11
7.8539129014367708
 21
12.27708710972702
 31
0.0
  0
LINE
  5
2C68
  8
0
 62
     0
 10
7.8539129014367708
 20
12.807417195616919
 30
0.0
 11
9.6621871970055935
 21
14.615691491185739
 31
0.0
  0
LINE
  5
2C69
  8
0
 62
     0
 10
6.0053486986886213
 20
10.958852992868771
 30
0.0
 11
7.8539129014367566
 21
12.807417195616919
 31
0.0
  0
LINE
  5
2C6A
  8
0
 62
     0
 10
7.8539129014367708
 20
13.337747281506831
 30
0.0
 11
9.1318571111156785
 21
14.615691491185739
 31
0.0
  0
LINE
  5
2C6B
  8
0
 62
     0
 10
5.4750186127987064
 20
10.958852992868771
 30
0.0
 11
7.8539129014367566
 21
13.33774728150682
 31
0.0
  0
LINE
  5
2C6C
  8
0
 62
     0
 10
7.8539129014367708
 20
13.868077367396751
 30
0.0
 11
8.6015270252257636
 21
14.615691491185739
 31
0.0
  0
LINE
  5
2C6D
  8
0
 62
     0
 10
4.9446885269087906
 20
10.958852992868771
 30
0.0
 11
7.8539129014367566
 21
13.868077367396729
 31
0.0
  0
LINE
  5
2C6E
  8
0
 62
     0
 10
7.8539129014367708
 20
14.39840745328668
 30
0.0
 11
8.0711969393358487
 21
14.615691491185739
 31
0.0
  0
LINE
  5
2C6F
  8
0
 62
     0
 10
4.4143584410188756
 20
10.958852992868771
 30
0.0
 11
7.8539129014367566
 21
14.39840745328665
 31
0.0
  0
LINE
  5
2C70
  8
0
 62
     0
 10
3.8840283551289612
 20
10.958852992868779
 30
0.0
 11
7.5408668534459329
 21
14.615691491185739
 31
0.0
  0
LINE
  5
2C71
  8
0
 62
     0
 10
3.8488206804758391
 20
11.453975404105559
 30
0.0
 11
7.010536767556018
 21
14.61569149118575
 31
0.0
  0
LINE
  5
2C72
  8
0
 62
     0
 10
3.8488206804758529
 20
11.984305489995471
 30
0.0
 11
6.4838417038944547
 21
14.61932651341408
 31
0.0
  0
LINE
  5
2C73
  8
0
 62
     0
 10
3.8488206804758529
 20
12.51463557588538
 30
0.0
 11
6.1101961943777354
 21
14.776011089787261
 31
0.0
  0
LINE
  5
2C74
  8
0
 62
     0
 10
3.8488206804758391
 20
13.044965661775279
 30
0.0
 11
5.5798661084878196
 21
14.77601108978727
 31
0.0
  0
LINE
  5
2C75
  8
0
 62
     0
 10
3.8488206804758098
 20
13.575295747665161
 30
0.0
 11
5.0495360225979189
 21
14.77601108978727
 31
0.0
  0
LINE
  5
2C76
  8
0
 62
     0
 10
3.8488206804757961
 20
14.105625833555081
 30
0.0
 11
4.519205936708004
 21
14.77601108978727
 31
0.0
  0
LINE
  5
2C77
  8
0
 62
     0
 10
3.8488206804757961
 20
14.63595591944498
 30
0.0
 11
3.988875850818089
 21
14.77601108978727
 31
0.0
  0
ENDBLK
  5
2C79
  8
0
  0
BLOCK
  8
0
  2
*X6
 70
     1
 10
0.0
 20
0.0
 30
0.0
  3
*X6
  1

  0
LINE
  5
2C7B
  8
0
 62
     0
 10
11.874906907005521
 20
1.979168796268211
 30
0.0
 11
12.239919758540241
 21
2.3441816478029258
 31
0.0
  0
LINE
  5
2C7C
  8
0
 62
     0
 10
11.344576821115631
 20
1.979168796268197
 30
0.0
 11
12.23991975854025
 21
2.874511733692827
 31
0.0
  0
LINE
  5
2C7D
  8
0
 62
     0
 10
10.8142467352257
 20
1.979168796268211
 30
0.0
 11
12.23991975854026
 21
3.4048418195827841
 31
0.0
  0
LINE
  5
2C7E
  8
0
 62
     0
 10
10.28391664933579
 20
1.979168796268183
 30
0.0
 11
12.239919758540291
 21
3.9351719054726848
 31
0.0
  0
LINE
  5
2C7F
  8
0
 62
     0
 10
9.7535865634458911
 20
1.979168796268211
 30
0.0
 11
12.239919758540321
 21
4.465501991362629
 31
0.0
  0
LINE
  5
2C80
  8
0
 62
     0
 10
9.2232564775559922
 20
1.979168796268211
 30
0.0
 11
12.239919758540321
 21
4.9958320772525431
 31
0.0
  0
LINE
  5
2C81
  8
0
 62
     0
 10
8.6929263916660915
 20
1.979168796268197
 30
0.0
 11
12.22566367767673
 21
5.5119060822788413
 31
0.0
  0
LINE
  5
2C82
  8
0
 62
     0
 10
8.1625963057761481
 20
1.979168796268197
 30
0.0
 11
11.695333591786801
 21
5.5119060822788546
 31
0.0
  0
LINE
  5
2C83
  8
0
 62
     0
 10
7.853912901436729
 20
2.200815477818665
 30
0.0
 11
11.1650035058969
 21
5.5119060822788413
 31
0.0
  0
LINE
  5
2C84
  8
0
 62
     0
 10
12.11195041648679
 20
6.458852992868727
 30
0.0
 11
12.170831846452479
 21
6.5177344228344216
 31
0.0
  0
LINE
  5
2C85
  8
0
 62
     0
 10
7.6322662198862474
 20
1.979168796268183
 30
0.0
 11
7.853912901436729
 21
2.200815477818665
 31
0.0
  0
LINE
  5
2C86
  8
0
 62
     0
 10
7.8539129014366997
 20
2.7311455637085942
 30
0.0
 11
10.634673420006971
 21
5.5119060822788688
 31
0.0
  0
LINE
  5
2C87
  8
0
 62
     0
 10
11.581620330596859
 20
6.4588529928687564
 30
0.0
 11
12.17083184645244
 21
7.0480645087243232
 31
0.0
  0
LINE
  5
2C88
  8
0
 62
     0
 10
7.1019361339963183
 20
1.979168796268197
 30
0.0
 11
7.8539129014366997
 21
2.7311455637085942
 31
0.0
  0
LINE
  5
2C89
  8
0
 62
     0
 10
7.853912901436729
 20
3.261475649598494
 30
0.0
 11
10.104343334117059
 21
5.5119060822788271
 31
0.0
  0
LINE
  5
2C8A
  8
0
 62
     0
 10
11.05129024470696
 20
6.4588529928687421
 30
0.0
 11
12.17083184645244
 21
7.5783945946142088
 31
0.0
  0
LINE
  5
2C8B
  8
0
 62
     0
 10
6.5765244098729587
 20
1.9840871580347319
 30
0.0
 11
7.853912901436729
 21
3.261475649598494
 31
0.0
  0
LINE
  5
2C8C
  8
0
 62
     0
 10
7.8539129014367433
 20
3.7918057354883952
 30
0.0
 11
9.5740132482271871
 21
5.5119060822788413
 31
0.0
  0
LINE
  5
2C8D
  8
0
 62
     0
 10
10.52096015881707
 20
6.458852992868727
 30
0.0
 11
12.170831846452449
 21
8.1087246805041104
 31
0.0
  0
LINE
  5
2C8E
  8
0
 62
     0
 10
6.5765244098729729
 20
2.5144172439246262
 30
0.0
 11
7.8539129014367433
 21
3.7918057354883952
 31
0.0
  0
LINE
  5
2C8F
  8
0
 62
     0
 10
7.853912901436729
 20
4.3221358213783239
 30
0.0
 11
9.0436831623372598
 21
5.5119060822788546
 31
0.0
  0
LINE
  5
2C90
  8
0
 62
     0
 10
9.9906300729271464
 20
6.4588529928687421
 30
0.0
 11
12.17083184645244
 21
8.6390547663940396
 31
0.0
  0
LINE
  5
2C91
  8
0
 62
     0
 10
6.5765244098729587
 20
3.0447473298145549
 30
0.0
 11
7.853912901436729
 21
4.3221358213783239
 31
0.0
  0
LINE
  5
2C92
  8
0
 62
     0
 10
7.8539129014367433
 20
4.8524659072682246
 30
0.0
 11
8.5133530764473591
 21
5.5119060822788413
 31
0.0
  0
LINE
  5
2C93
  8
0
 62
     0
 10
9.4602999870372457
 20
6.458852992868727
 30
0.0
 11
12.170831846452449
 21
9.1693848522839403
 31
0.0
  0
LINE
  5
2C94
  8
0
 62
     0
 10
6.5765244098729729
 20
3.575077415704456
 30
0.0
 11
7.8539129014367433
 21
4.8524659072682246
 31
0.0
  0
LINE
  5
2C95
  8
0
 62
     0
 10
7.8539129014367433
 20
5.3827959931581537
 30
0.0
 11
7.9830229905574441
 21
5.5119060822788546
 31
0.0
  0
LINE
  5
2C96
  8
0
 62
     0
 10
8.9299699011473308
 20
6.4588529928687421
 30
0.0
 11
12.17083184645244
 21
9.6997149381738552
 31
0.0
  0
LINE
  5
2C97
  8
0
 62
     0
 10
6.5765244098729587
 20
4.1054075015943852
 30
0.0
 11
7.8539129014367433
 21
5.3827959931581537
 31
0.0
  0
LINE
  5
2C98
  8
0
 62
     0
 10
8.3996398152573875
 20
6.4588529928686986
 30
0.0
 11
12.05647831357436
 21
10.11569149118567
 31
0.0
  0
LINE
  5
2C99
  8
0
 62
     0
 10
6.5765244098729587
 20
4.635737587484285
 30
0.0
 11
7.4526929046675292
 21
5.5119060822788413
 31
0.0
  0
LINE
  5
2C9A
  8
0
 62
     0
 10
7.8693097293674716
 20
6.4588529928686986
 30
0.0
 11
11.52614822768447
 21
10.1156914911857
 31
0.0
  0
LINE
  5
2C9B
  8
0
 62
     0
 10
6.5765244098729729
 20
5.1660676733741999
 30
0.0
 11
6.9223628187776001
 21
5.5119060822788271
 31
0.0
  0
LINE
  5
2C9C
  8
0
 62
     0
 10
7.8539129014367433
 20
6.9737862508278852
 30
0.0
 11
10.995818141794549
 21
10.1156914911857
 31
0.0
  0
LINE
  5
2C9D
  8
0
 62
     0
 10
7.3389796434775567
 20
6.4588529928687128
 30
0.0
 11
7.8539129014367433
 21
6.9737862508278852
 31
0.0
  0
LINE
  5
2C9E
  8
0
 62
     0
 10
7.853912901436729
 20
7.5041163367178001
 30
0.0
 11
10.46548805590464
 21
10.1156914911857
 31
0.0
  0
LINE
  5
2C9F
  8
0
 62
     0
 10
6.808649557587656
 20
6.4588529928687128
 30
0.0
 11
7.853912901436729
 21
7.5041163367178001
 31
0.0
  0
LINE
  5
2CA0
  8
0
 62
     0
 10
7.853912901436729
 20
8.034446422607715
 30
0.0
 11
9.9351579700147283
 21
10.1156914911857
 31
0.0
  0
LINE
  5
2CA1
  8
0
 62
     0
 10
6.2783194716977411
 20
6.458852992868727
 30
0.0
 11
7.853912901436729
 21
8.034446422607715
 31
0.0
  0
LINE
  5
2CA2
  8
0
 62
     0
 10
7.853912901436729
 20
8.5647765084976157
 30
0.0
 11
9.4048278841247992
 21
10.115691491185681
 31
0.0
  0
LINE
  5
2CA3
  8
0
 62
     0
 10
5.7479893858078412
 20
6.458852992868727
 30
0.0
 11
7.853912901436729
 21
8.5647765084976157
 31
0.0
  0
LINE
  5
2CA4
  8
0
 62
     0
 10
7.8539129014367433
 20
9.0951065943875307
 30
0.0
 11
8.8744977982349127
 21
10.115691491185711
 31
0.0
  0
LINE
  5
2CA5
  8
0
 62
     0
 10
5.2176592999179396
 20
6.458852992868727
 30
0.0
 11
7.8539129014367433
 21
9.0951065943875307
 31
0.0
  0
LINE
  5
2CA6
  8
0
 62
     0
 10
7.8539129014367433
 20
9.6254366802774314
 30
0.0
 11
8.3441677123449978
 21
10.1156914911857
 31
0.0
  0
LINE
  5
2CA7
  8
0
 62
     0
 10
4.6873292140279972
 20
6.4588529928686986
 30
0.0
 11
7.8539129014367433
 21
9.6254366802774314
 31
0.0
  0
LINE
  5
2CA8
  8
0
 62
     0
 10
4.1569991281380956
 20
6.4588529928686986
 30
0.0
 11
7.8138376264550971
 21
10.1156914911857
 31
0.0
  0
LINE
  5
2CA9
  8
0
 62
     0
 10
3.696816140623127
 20
6.5290000912436588
 30
0.0
 11
7.2835075405651821
 21
10.1156914911857
 31
0.0
  0
LINE
  5
2CAA
  8
0
 62
     0
 10
3.6968161406231128
 20
7.0593301771335462
 30
0.0
 11
6.7531774546752672
 21
10.1156914911857
 31
0.0
  0
LINE
  5
2CAB
  8
0
 62
     0
 10
3.696816140623099
 20
7.589660263023446
 30
0.0
 11
6.3831669673868703
 21
10.276011089787209
 31
0.0
  0
LINE
  5
2CAC
  8
0
 62
     0
 10
3.6968161406230839
 20
8.1199903489133334
 30
0.0
 11
5.8528368814969554
 21
10.2760110897872
 31
0.0
  0
LINE
  5
2CAD
  8
0
 62
     0
 10
3.6968161406230422
 20
8.6503204348031915
 30
0.0
 11
5.3225067956070404
 21
10.276011089787181
 31
0.0
  0
LINE
  5
2CAE
  8
0
 62
     0
 10
3.6968161406230422
 20
9.1806505206931064
 30
0.0
 11
4.7921767097171246
 21
10.276011089787181
 31
0.0
  0
LINE
  5
2CAF
  8
0
 62
     0
 10
3.6968161406229991
 20
9.7109806065829787
 30
0.0
 11
4.2618466238272097
 21
10.276011089787181
 31
0.0
  0
LINE
  5
2CB0
  8
0
 62
     0
 10
3.6968161406229849
 20
10.241310692472879
 30
0.0
 11
3.7315165379372952
 21
10.276011089787181
 31
0.0
  0
ENDBLK
  5
2CB2
  8
0
  0
BLOCK
  8
0
  2
*X7
 70
     1
 10
0.0
 20
0.0
 30
0.0
  3
*X7
  1

  0
LINE
  5
2CB4
  8
0
 62
     0
 10
23.228869227246388
 20
5.2512933729819604
 30
0.0
 11
23.274438374685939
 21
5.296862520421505
 31
0.0
  0
LINE
  5
2CB5
  8
0
 62
     0
 10
23.177092531949761
 20
5.3762933729819622
 30
0.0
 11
23.224553882761398
 21
5.423754723793599
 31
0.0
  0
LINE
  5
2CB6
  8
0
 62
     0
 10
23.052092531949761
 20
5.2512933729819604
 30
0.0
 11
23.177092531949761
 21
5.3762933729819622
 31
0.0
  0
LINE
  5
2CB7
  8
0
 62
     0
 10
23.00031583665313
 20
5.3762933729819631
 30
0.0
 11
23.164813539775011
 21
5.5407910761038517
 31
0.0
  0
LINE
  5
2CB8
  8
0
 62
     0
 10
22.875315836653119
 20
5.2512933729819604
 30
0.0
 11
23.000315836653119
 21
5.3762933729819604
 31
0.0
  0
LINE
  5
2CB9
  8
0
 62
     0
 10
22.823539141356491
 20
5.3762933729819631
 30
0.0
 11
23.096102081600101
 21
5.6488563132255729
 31
0.0
  0
LINE
  5
2CBA
  8
0
 62
     0
 10
22.698539141356491
 20
5.2512933729819622
 30
0.0
 11
22.823539141356491
 21
5.3762933729819631
 31
0.0
  0
LINE
  5
2CBB
  8
0
 62
     0
 10
22.646762446059849
 20
5.3762933729819622
 30
0.0
 11
23.018966118417129
 21
5.7484970453392474
 31
0.0
  0
LINE
  5
2CBC
  8
0
 62
     0
 10
22.521762446059849
 20
5.2512933729819604
 30
0.0
 11
22.646762446059849
 21
5.3762933729819622
 31
0.0
  0
LINE
  5
2CBD
  8
0
 62
     0
 10
22.469985750763222
 20
5.3762933729819649
 30
0.0
 11
22.933698207224971
 21
5.840005829443724
 31
0.0
  0
LINE
  5
2CBE
  8
0
 62
     0
 10
22.344985750763211
 20
5.2512933729819631
 30
0.0
 11
22.469985750763211
 21
5.3762933729819622
 31
0.0
  0
LINE
  5
2CBF
  8
0
 62
     0
 10
22.29320905546658
 20
5.3762933729819622
 30
0.0
 11
22.840377051316821
 21
5.923461368832208
 31
0.0
  0
LINE
  5
2CC0
  8
0
 62
     0
 10
22.168209055466569
 20
5.2512933729819604
 30
0.0
 11
22.29320905546658
 21
5.3762933729819622
 31
0.0
  0
LINE
  5
2CC1
  8
0
 62
     0
 10
22.116432360169942
 20
5.3762933729819604
 30
0.0
 11
22.738877760355489
 21
5.998738773167509
 31
0.0
  0
LINE
  5
2CC2
  8
0
 62
     0
 10
21.991432360169942
 20
5.2512933729819622
 30
0.0
 11
22.116432360169942
 21
5.3762933729819604
 31
0.0
  0
LINE
  5
2CC3
  8
0
 62
     0
 10
21.9396556648733
 20
5.3762933729819622
 30
0.0
 11
22.628855460623122
 21
6.0654931687317752
 31
0.0
  0
LINE
  5
2CC4
  8
0
 62
     0
 10
21.8146556648733
 20
5.2512933729819622
 30
0.0
 11
21.9396556648733
 21
5.3762933729819622
 31
0.0
  0
LINE
  5
2CC5
  8
0
 62
     0
 10
21.762878969576668
 20
5.3762933729819622
 30
0.0
 11
22.509696948013708
 21
6.1231113514190048
 31
0.0
  0
LINE
  5
2CC6
  8
0
 62
     0
 10
21.637878969576668
 20
5.2512933729819631
 30
0.0
 11
21.762878969576668
 21
5.3762933729819622
 31
0.0
  0
LINE
  5
2CC7
  8
0
 62
     0
 10
21.58610227428003
 20
5.3762933729819622
 30
0.0
 11
22.38042312977262
 21
6.1706142284745491
 31
0.0
  0
LINE
  5
2CC8
  8
0
 62
     0
 10
21.46110227428003
 20
5.2512933729819631
 30
0.0
 11
21.58610227428003
 21
5.3762933729819622
 31
0.0
  0
LINE
  5
2CC9
  8
0
 62
     0
 10
21.409325578983388
 20
5.3762933729819622
 30
0.0
 11
22.239500603465611
 21
6.2064683974641834
 31
0.0
  0
LINE
  5
2CCA
  8
0
 62
     0
 10
21.284325578983399
 20
5.2512933729819649
 30
0.0
 11
21.409325578983388
 21
5.3762933729819622
 31
0.0
  0
LINE
  5
2CCB
  8
0
 62
     0
 10
21.232548883686761
 20
5.3762933729819604
 30
0.0
 11
22.08445827075905
 21
6.2282027600542591
 31
0.0
  0
LINE
  5
2CCC
  8
0
 62
     0
 10
21.10754888368675
 20
5.2512933729819622
 30
0.0
 11
21.232548883686761
 21
5.3762933729819604
 31
0.0
  0
LINE
  5
2CCD
  8
0
 62
     0
 10
21.055772188390119
 20
5.3762933729819622
 30
0.0
 11
21.911010313238378
 21
6.2315314978302201
 31
0.0
  0
LINE
  5
2CCE
  8
0
 62
     0
 10
20.930772188390119
 20
5.2512933729819622
 30
0.0
 11
21.055772188390119
 21
5.3762933729819622
 31
0.0
  0
LINE
  5
2CCF
  8
0
 62
     0
 10
20.87899549309348
 20
5.3762933729819613
 30
0.0
 11
21.71060006119934
 21
6.2078979410878237
 31
0.0
  0
LINE
  5
2CD0
  8
0
 62
     0
 10
20.75399549309348
 20
5.2512933729819631
 30
0.0
 11
20.87899549309348
 21
5.3762933729819613
 31
0.0
  0
LINE
  5
2CD1
  8
0
 62
     0
 10
20.702218797796849
 20
5.3762933729819613
 30
0.0
 11
21.460237910350742
 21
6.1343124855358644
 31
0.0
  0
LINE
  5
2CD2
  8
0
 62
     0
 10
20.694949245795691
 20
5.369023820980809
 30
0.0
 11
20.702218797796849
 21
5.3762933729819613
 31
0.0
  0
ENDBLK
  5
2CD4
  8
0
  0
BLOCK
  8
0
  2
*X8
 70
     1
 10
0.0
 20
0.0
 30
0.0
  3
*X8
  1

  0
LINE
  5
2CD6
  8
0
 62
     0
 10
22.795172247052172
 20
3.7569362210079191
 30
0.0
 11
23.07232551032364
 21
4.0340894842793817
 31
0.0
  0
LINE
  5
2CD7
  8
0
 62
     0
 10
22.41931915468243
 20
3.557859823934816
 30
0.0
 11
23.27140190739674
 21
4.4099425766491196
 31
0.0
  0
LINE
  5
2CD8
  8
0
 62
     0
 10
22.184089973944079
 20
3.4994073384931048
 30
0.0
 11
23.329854392838449
 21
4.6451717573874687
 31
0.0
  0
LINE
  5
2CD9
  8
0
 62
     0
 10
21.99090264415366
 20
3.482996703999317
 30
0.0
 11
23.34626502733224
 21
4.8383590871778948
 31
0.0
  0
LINE
  5
2CDA
  8
0
 62
     0
 10
21.822115961285832
 20
3.4909867164281141
 30
0.0
 11
23.338275014903449
 21
5.0071457700457351
 31
0.0
  0
LINE
  5
2CDB
  8
0
 62
     0
 10
23.28064592254303
 20
5.1262933729819622
 30
0.0
 11
23.313081966859158
 21
5.1587294172980931
 31
0.0
  0
LINE
  5
2CDC
  8
0
 62
     0
 10
21.670532314033458
 20
3.5161797644723922
 30
0.0
 11
23.28064592254303
 21
5.1262933729819604
 31
0.0
  0
LINE
  5
2CDD
  8
0
 62
     0
 10
23.103869227246399
 20
5.1262933729819578
 30
0.0
 11
23.228869227246399
 21
5.2512933729819622
 31
0.0
  0
LINE
  5
2CDE
  8
0
 62
     0
 10
21.53239921091005
 20
3.554823356645616
 30
0.0
 11
23.103869227246399
 21
5.1262933729819578
 31
0.0
  0
LINE
  5
2CDF
  8
0
 62
     0
 10
22.927092531949761
 20
5.1262933729819622
 30
0.0
 11
23.052092531949761
 21
5.2512933729819604
 31
0.0
  0
LINE
  5
2CE0
  8
0
 62
     0
 10
21.40550700753796
 20
3.6047078485701589
 30
0.0
 11
22.92709253194975
 21
5.1262933729819604
 31
0.0
  0
LINE
  5
2CE1
  8
0
 62
     0
 10
22.75031583665313
 20
5.1262933729819604
 30
0.0
 11
22.875315836653119
 21
5.2512933729819604
 31
0.0
  0
LINE
  5
2CE2
  8
0
 62
     0
 10
21.288470655227702
 20
3.664448191556541
 30
0.0
 11
22.750315836653119
 21
5.1262933729819578
 31
0.0
  0
LINE
  5
2CE3
  8
0
 62
     0
 10
22.573539141356491
 20
5.1262933729819578
 30
0.0
 11
22.698539141356491
 21
5.2512933729819622
 31
0.0
  0
LINE
  5
2CE4
  8
0
 62
     0
 10
21.18040541810598
 20
3.7331596497314559
 30
0.0
 11
22.573539141356491
 21
5.1262933729819578
 31
0.0
  0
LINE
  5
2CE5
  8
0
 62
     0
 10
22.396762446059849
 20
5.1262933729819622
 30
0.0
 11
22.521762446059849
 21
5.2512933729819604
 31
0.0
  0
LINE
  5
2CE6
  8
0
 62
     0
 10
21.08076468599231
 20
3.8102956129144192
 30
0.0
 11
22.396762446059849
 21
5.1262933729819604
 31
0.0
  0
LINE
  5
2CE7
  8
0
 62
     0
 10
22.219985750763211
 20
5.1262933729819604
 30
0.0
 11
22.344985750763211
 21
5.2512933729819631
 31
0.0
  0
LINE
  5
2CE8
  8
0
 62
     0
 10
20.98925590188783
 20
3.8955635241065831
 30
0.0
 11
22.219985750763211
 21
5.1262933729819604
 31
0.0
  0
LINE
  5
2CE9
  8
0
 62
     0
 10
22.04320905546658
 20
5.1262933729819622
 30
0.0
 11
22.168209055466569
 21
5.2512933729819604
 31
0.0
  0
LINE
  5
2CEA
  8
0
 62
     0
 10
20.905800362499349
 20
3.988884680014734
 30
0.0
 11
22.043209055466569
 21
5.1262933729819604
 31
0.0
  0
LINE
  5
2CEB
  8
0
 62
     0
 10
21.866432360169942
 20
5.1262933729819604
 30
0.0
 11
21.991432360169942
 21
5.2512933729819622
 31
0.0
  0
LINE
  5
2CEC
  8
0
 62
     0
 10
20.83052295816405
 20
4.0903839709760659
 30
0.0
 11
21.866432360169942
 21
5.1262933729819578
 31
0.0
  0
LINE
  5
2CED
  8
0
 62
     0
 10
21.6896556648733
 20
5.1262933729819578
 30
0.0
 11
21.8146556648733
 21
5.2512933729819622
 31
0.0
  0
LINE
  5
2CEE
  8
0
 62
     0
 10
20.763768562599779
 20
4.2004062707084389
 30
0.0
 11
21.6896556648733
 21
5.1262933729819578
 31
0.0
  0
LINE
  5
2CEF
  8
0
 62
     0
 10
21.512878969576661
 20
5.1262933729819622
 30
0.0
 11
21.637878969576668
 21
5.2512933729819631
 31
0.0
  0
LINE
  5
2CF0
  8
0
 62
     0
 10
20.70615037991255
 20
4.3195647833178468
 30
0.0
 11
21.512878969576661
 21
5.1262933729819604
 31
0.0
  0
LINE
  5
2CF1
  8
0
 62
     0
 10
21.33610227428003
 20
5.1262933729819604
 30
0.0
 11
21.46110227428003
 21
5.2512933729819631
 31
0.0
  0
LINE
  5
2CF2
  8
0
 62
     0
 10
20.658647502857011
 20
4.448838601558939
 30
0.0
 11
21.33610227428003
 21
5.1262933729819604
 31
0.0
  0
LINE
  5
2CF3
  8
0
 62
     0
 10
21.159325578983388
 20
5.1262933729819604
 30
0.0
 11
21.284325578983399
 21
5.2512933729819649
 31
0.0
  0
LINE
  5
2CF4
  8
0
 62
     0
 10
20.622793333867371
 20
4.589761127865942
 30
0.0
 11
21.159325578983388
 21
5.1262933729819604
 31
0.0
  0
LINE
  5
2CF5
  8
0
 62
     0
 10
20.982548883686761
 20
5.1262933729819604
 30
0.0
 11
21.10754888368675
 21
5.2512933729819622
 31
0.0
  0
LINE
  5
2CF6
  8
0
 62
     0
 10
20.6010589712773
 20
4.7448034605725029
 30
0.0
 11
20.982548883686761
 21
5.1262933729819604
 31
0.0
  0
LINE
  5
2CF7
  8
0
 62
     0
 10
20.805772188390119
 20
5.1262933729819578
 30
0.0
 11
20.930772188390119
 21
5.2512933729819622
 31
0.0
  0
LINE
  5
2CF8
  8
0
 62
     0
 10
20.597730233501341
 20
4.9182514180931793
 30
0.0
 11
20.805772188390119
 21
5.1262933729819578
 31
0.0
  0
LINE
  5
2CF9
  8
0
 62
     0
 10
20.62899549309348
 20
5.1262933729819613
 30
0.0
 11
20.75399549309348
 21
5.2512933729819631
 31
0.0
  0
LINE
  5
2CFA
  8
0
 62
     0
 10
20.621363790243731
 20
5.1186616701322114
 30
0.0
 11
20.62899549309348
 21
5.1262933729819613
 31
0.0
  0
ENDBLK
  5
2CFC
  8
0
  0
BLOCK
  8
0
  2
*U9
 70
     1
 10
0.0
 20
0.0
 30
0.0
  3
*U9
  1

  0
TEXT
  5
2CFE
  8
DIMENSIONS
 10
20.871242319746209
 20
15.86942249908069
 30
0.0
 40
0.45
  1
This is a foot drive system I am using on my 
 41
0.55
  7
ARIAL
  0
TEXT
  5
2CFF
  8
DIMENSIONS
 10
20.856554393416062
 20
15.117580752832399
 30
0.0
 40
0.45
  1
mini-droid.  It uses a 100w scooter motor with a 
 41
0.55
  7
ARIAL
  0
TEXT
  5
2D00
  8
DIMENSIONS
 10
20.86499573038741
 20
14.35959985242312
 30
0.0
 40
0.45
  1
5.5" OD wheel.  This contains only one wheel 
 41
0.55
  7
ARIAL
  0
TEXT
  5
2D01
  8
DIMENSIONS
 10
20.87833304280214
 20
13.607758106174829
 30
0.0
 40
0.45
  1
with the droid in a permanent 3 legged mode
 41
0.55
  7
ARIAL
  0
ENDBLK
  5
2D03
  8
0
  0
ENDSEC
  0
SECTION
  2
ENTITIES
  0
POLYLINE
  5
6B
  8
BORDER
  6
CONTINUOUS
 66
     1
 10
0.0
 20
0.0
 30
0.0
 40
0.00896
 41
0.00896
  0
VERTEX
  5
2BF2
  8
BORDER
  6
CONTINUOUS
 10
30.995838500976561
 20
0.6344005126953105
 30
0.0
  0
VERTEX
  5
2BF3
  8
BORDER
  6
CONTINUOUS
 10
31.5
 20
0.6344005126953105
 30
0.0
  0
SEQEND
  5
2BF4
  8
BORDER
  6
CONTINUOUS
  0
POLYLINE
  5
6F
  8
BORDER
  6
CONTINUOUS
 66
     1
 10
0.0
 20
0.0
 30
0.0
 40
0.00896
 41
0.00896
  0
VERTEX
  5
2BF5
  8
BORDER
  6
CONTINUOUS
 10
30.995838500976561
 20
0.5000008544921873
 30
0.0
  0
VERTEX
  5
2BF6
  8
BORDER
  6
CONTINUOUS
 10
30.995838500976561
 20
0.7688001708984356
 30
0.0
  0
SEQEND
  5
2BF7
  8
BORDER
  6
CONTINUOUS
  0
POLYLINE
  5
73
  8
BORDER
  6
CONTINUOUS
 66
     1
 10
0.0
 20
0.0
 30
0.0
 40
0.00896
 41
0.00896
  0
VERTEX
  5
2BF8
  8
BORDER
  6
CONTINUOUS
 10
29.437531860351569
 20
0.7688001708984356
 30
0.0
  0
VERTEX
  5
2BF9
  8
BORDER
  6
CONTINUOUS
 10
29.437531860351569
 20
0.5000008544921873
 30
0.0
  0
SEQEND
  5
2BFA
  8
BORDER
  6
CONTINUOUS
  0
POLYLINE
  5
77
  8
BORDER
  6
CONTINUOUS
 66
     1
 10
0.0
 20
0.0
 30
0.0
 40
0.00896
 41
0.00896
  0
VERTEX
  5
2BFB
  8
BORDER
  6
CONTINUOUS
 10
28.520877075195308
 20
0.5000008544921873
 30
0.0
  0
VERTEX
  5
2BFC
  8
BORDER
  6
CONTINUOUS
 10
28.520877075195308
 20
0.7688001708984356
 30
0.0
  0
SEQEND
  5
2BFD
  8
BORDER
  6
CONTINUOUS
  0
POLYLINE
  5
7B
  8
BORDER
  6
CONTINUOUS
 66
     1
 10
0.0
 20
0.0
 30
0.0
 40
0.00896
 41
0.00896
  0
VERTEX
  5
2BFE
  8
BORDER
  6
CONTINUOUS
 10
27.42089270019531
 20
0.6344005126953105
 30
0.0
  0
VERTEX
  5
2BFF
  8
BORDER
  6
CONTINUOUS
 10
29.437531860351569
 20
0.6344005126953105
 30
0.0
  0
SEQEND
  5
2C00
  8
BORDER
  6
CONTINUOUS
  0
POLYLINE
  5
83
  8
BORDER
  6
CONTINUOUS
 66
     1
 10
0.0
 20
0.0
 30
0.0
 40
0.00896
 41
0.00896
  0
VERTEX
  5
2C01
  8
BORDER
  6
CONTINUOUS
 10
31.5
 20
0.7688001708984356
 30
0.0
  0
VERTEX
  5
2C02
  8
BORDER
  6
CONTINUOUS
 10
27.42089270019531
 20
0.7688001708984356
 30
0.0
  0
SEQEND
  5
2C03
  8
BORDER
  6
CONTINUOUS
  0
POLYLINE
  5
8C
  8
BORDER
  6
CONTINUOUS
 66
     1
 10
0.0
 20
0.0
 30
0.0
 40
0.00896
 41
0.00896
  0
VERTEX
  5
2C04
  8
BORDER
  6
CONTINUOUS
 10
31.5
 20
1.0671441112468629
 30
0.0
  0
VERTEX
  5
2C05
  8
BORDER
  6
CONTINUOUS
 10
27.42089270019531
 20
1.0671441112468629
 30
0.0
  0
SEQEND
  5
2C06
  8
BORDER
  6
CONTINUOUS
  0
POLYLINE
  5
90
  8
BORDER
  6
CONTINUOUS
 66
     1
 10
0.0
 20
0.0
 30
0.0
 40
0.00896
 41
0.00896
  0
VERTEX
  5
2C07
  8
BORDER
  6
CONTINUOUS
 10
31.5
 20
2.2280296657481431
 30
0.0
  0
VERTEX
  5
2C08
  8
BORDER
  6
CONTINUOUS
 10
27.42089270019531
 20
2.2280296657481431
 30
0.0
  0
SEQEND
  5
2C09
  8
BORDER
  6
CONTINUOUS
  0
POLYLINE
  5
94
  8
BORDER
  6
CONTINUOUS
 66
     1
 10
0.0
 20
0.0
 30
0.0
 40
0.00896
 41
0.00896
  0
VERTEX
  5
2C0A
  8
BORDER
  6
CONTINUOUS
 10
31.5
 20
2.4520296657481442
 30
0.0
  0
VERTEX
  5
2C0B
  8
BORDER
  6
CONTINUOUS
 10
27.42089270019531
 20
2.4520296657481442
 30
0.0
  0
SEQEND
  5
2C0C
  8
BORDER
  6
CONTINUOUS
  0
POLYLINE
  5
98
  8
BORDER
  6
CONTINUOUS
 66
     1
 10
0.0
 20
0.0
 30
0.0
 40
0.01344
 41
0.01344
  0
VERTEX
  5
2C0D
  8
BORDER
  6
CONTINUOUS
 10
30.297036006556471
 20
2.4520296657481442
 30
0.0
  0
VERTEX
  5
2C0E
  8
BORDER
  6
CONTINUOUS
 10
30.297036006556471
 20
2.2280296657481431
 30
0.0
  0
SEQEND
  5
2C0F
  8
BORDER
  6
CONTINUOUS
  0
POLYLINE
  5
9C
  8
BORDER
  6
CONTINUOUS
 66
     1
 10
0.0
 20
0.0
 30
0.0
 40
0.01344
 41
0.01344
  0
VERTEX
  5
2C10
  8
BORDER
  6
CONTINUOUS
 10
30.72577877295128
 20
2.4520296657481442
 30
0.0
  0
VERTEX
  5
2C11
  8
BORDER
  6
CONTINUOUS
 10
30.72577877295128
 20
2.2280296657481431
 30
0.0
  0
SEQEND
  5
2C12
  8
BORDER
  6
CONTINUOUS
  0
POLYLINE
  5
A0
  8
BORDER
  6
CONTINUOUS
 66
     1
 10
0.0
 20
0.0
 30
0.0
 40
0.01344
 41
0.01344
  0
VERTEX
  5
2C13
  8
BORDER
  6
CONTINUOUS
 10
31.16677132553961
 20
2.4520296657481442
 30
0.0
  0
VERTEX
  5
2C14
  8
BORDER
  6
CONTINUOUS
 10
31.16677132553961
 20
2.2280296657481431
 30
0.0
  0
SEQEND
  5
2C15
  8
BORDER
  6
CONTINUOUS
  0
POLYLINE
  5
A4
  8
BORDER
  6
CONTINUOUS
 66
     1
 10
0.0
 20
0.0
 30
0.0
 40
0.01344
 41
0.01344
  0
VERTEX
  5
2C16
  8
BORDER
  6
CONTINUOUS
 10
27.847587996842261
 20
2.4520296657481442
 30
0.0
  0
VERTEX
  5
2C17
  8
BORDER
  6
CONTINUOUS
 10
27.847587996842261
 20
2.2280296657481431
 30
0.0
  0
SEQEND
  5
2C18
  8
BORDER
  6
CONTINUOUS
  0
POLYLINE
  5
A8
  8
BORDER
  6
CONTINUOUS
 66
     1
 10
0.0
 20
0.0
 30
0.0
 40
0.00896
 41
0.00896
  0
VERTEX
  5
2C19
  8
BORDER
  6
CONTINUOUS
 10
27.42089270019531
 20
2.4520296657481442
 30
0.0
  0
VERTEX
  5
2C1A
  8
BORDER
  6
CONTINUOUS
 10
27.42089270019531
 20
0.5000008544921873
 30
0.0
  0
SEQEND
  5
2C1B
  8
BORDER
  6
CONTINUOUS
  0
TEXT
  5
AC
  8
TITLE
  6
CONTINUOUS
 10
29.033663654443021
 20
0.670136756793335
 30
0.0
 40
0.06048
  1
3-22-05
 41
0.8
  7
ROMAND
  0
TEXT
  5
AD
  8
TITLE
  6
CONTINUOUS
 10
28.153563830445059
 20
0.6675749917584666
 30
0.0
 40
0.06048
  1
1:1
 41
0.8
  7
ROMAND
  0
TEXT
  5
AF
  8
TITLE
  6
CONTINUOUS
 10
29.86946962671686
 20
0.538790520566197
 30
0.0
 40
0.0822528
  1
DRIVE-01
 41
0.8
  7
ROMAND
  0
TEXT
  5
124
  8
TITLE
 10
29.25818796994329
 20
0.9392028841985071
 30
0.0
 40
0.06048
  1
DRIVE  - TOP VIEW
 41
0.8
  7
ROMAND
 72
     4
 11
29.64180396994329
 21
0.9694428841985072
 31
0.0
  0
TEXT
  5
AB1
  8
TITLE
  6
CONTINUOUS
 10
28.153563830445059
 20
0.5331753335553425
 30
0.0
 40
0.06048
  1
ASK
 41
0.8
  7
ROMAND
  0
SOLID
  5
1274
  8
BORDER
  6
CONTINUOUS
 10
16.04999999999999
 20
20.699999999999989
 30
0.0
 11
16.449999999999999
 21
20.699999999999989
 31
0.0
 12
16.25
 22
20.5
 32
0.0
 13
16.25
 23
20.5
 33
0.0
  0
SOLID
  5
1275
  8
BORDER
  6
CONTINUOUS
 10
16.04999999999999
 20
0.2999999999999998
 30
0.0
 11
16.449999999999999
 21
0.2999999999999998
 31
0.0
 12
16.25
 22
0.5
 32
0.0
 13
16.25
 23
0.5
 33
0.0
  0
LINE
  5
1276
  8
BORDER
  6
CONTINUOUS
 10
32.5
 20
21.0
 30
0.0
 11
0.0
 21
21.0
 31
0.0
  0
LINE
  5
1277
  8
BORDER
  6
CONTINUOUS
 10
0.0
 20
0.0
 30
0.0
 11
32.5
 21
0.0
 31
0.0
  0
POLYLINE
  5
1278
  8
BORDER
  6
CONTINUOUS
 66
     1
 10
0.0
 20
0.0
 30
0.0
 40
0.02
 41
0.02
  0
VERTEX
  5
2C1C
  8
BORDER
  6
CONTINUOUS
 10
0.6000000000000015
 20
10.5
 30
0.0
  0
VERTEX
  5
2C1D
  8
BORDER
  6
CONTINUOUS
 10
0.7999999999999972
 20
10.5
 30
0.0
  0
SEQEND
  5
2C1E
  8
BORDER
  6
CONTINUOUS
  0
SOLID
  5
1279
  8
BORDER
  6
CONTINUOUS
 10
0.7999999999999972
 20
10.300000000000001
 30
0.0
 11
0.7999999999999972
 21
10.699999999999999
 31
0.0
 12
1.0
 22
10.5
 32
0.0
 13
1.0
 23
10.5
 33
0.0
  0
LINE
  5
127A
  8
BORDER
  6
CONTINUOUS
 10
0.0
 20
21.0
 30
0.0
 11
0.0
 21
0.0
 31
0.0
  0
TEXT
  5
127B
  8
BORDER
  6
CONTINUOUS
 10
0.3928571428571428
 20
2.625
 30
0.0
 40
0.25
  1
A
  7
ROMAN
 72
     1
 11
0.5
 21
2.75
 31
0.0
 73
     2
  0
TEXT
  5
127C
  8
BORDER
  6
CONTINUOUS
 10
2.00595238095238
 20
0.125
 30
0.0
 40
0.25
  1
8
  7
ROMAN
 72
     1
 11
2.125
 21
0.25
 31
0.0
 73
     2
  0
LINE
  5
127D
  8
BORDER
  6
CONTINUOUS
 10
4.0625
 20
0.5
 30
0.0
 11
4.0625
 21
0.125
 31
0.0
  0
LINE
  5
127E
  8
BORDER
  6
CONTINUOUS
 10
0.5
 20
5.25
 30
0.0
 11
1.0
 21
5.25
 31
0.0
  0
TEXT
  5
127F
  8
BORDER
  6
CONTINUOUS
 10
0.464285714285714
 20
7.7939050528381868
 30
0.0
 40
0.25
  1
B
  7
ROMAN
 72
     1
 11
0.5952380952380949
 21
7.9189050528381868
 31
0.0
 73
     2
  0
TEXT
  5
1280
  8
BORDER
  6
CONTINUOUS
 10
6.0000000000000009
 20
0.125
 30
0.0
 40
0.25
  1
7
  7
ROMAN
 72
     1
 11
6.1190476190476204
 21
0.25
 31
0.0
 73
     2
  0
LINE
  5
1281
  8
BORDER
  6
CONTINUOUS
 10
8.125
 20
0.5
 30
0.0
 11
8.125
 21
0.125
 31
0.0
  0
TEXT
  5
1282
  8
BORDER
  6
CONTINUOUS
 10
10.0
 20
0.125
 30
0.0
 40
0.25
  1
6
  7
ROMAN
 72
     1
 11
10.124999999999989
 21
0.25
 31
0.0
 73
     2
  0
LINE
  5
1283
  8
BORDER
  6
CONTINUOUS
 10
12.1875
 20
0.5
 30
0.0
 11
12.1875
 21
0.125
 31
0.0
  0
TEXT
  5
1284
  8
BORDER
  6
CONTINUOUS
 10
14.25
 20
0.125
 30
0.0
 40
0.25
  1
5
  7
ROMAN
 72
     1
 11
14.36904761904762
 21
0.25
 31
0.0
 73
     2
  0
LINE
  5
1285
  8
BORDER
  6
CONTINUOUS
 10
0.5
 20
15.75
 30
0.0
 11
1.0
 21
15.75
 31
0.0
  0
LINE
  5
1286
  8
BORDER
  6
CONTINUOUS
 10
0.5
 20
10.5
 30
0.0
 11
1.0
 21
10.5
 31
0.0
  0
POLYLINE
  5
1287
  8
BORDER
  6
CONTINUOUS
 66
     1
 10
0.0
 20
0.0
 30
0.0
 40
0.02
 41
0.02
  0
VERTEX
  5
2C1F
  8
BORDER
  6
CONTINUOUS
 10
0.5999999999999872
 20
10.5
 30
0.0
  0
VERTEX
  5
2C20
  8
BORDER
  6
CONTINUOUS
 10
0.5999999999999872
 20
10.5
 30
0.0
  0
SEQEND
  5
2C21
  8
BORDER
  6
CONTINUOUS
  0
TEXT
  5
1288
  8
BORDER
  6
CONTINUOUS
 10
0.4464285714285694
 20
12.947994717441279
 30
0.0
 40
0.25
  1
C
  7
ROMAN
 72
     1
 11
0.5714285714285694
 21
13.072994717441279
 31
0.0
 73
     2
  0
TEXT
  5
1289
  8
BORDER
  6
CONTINUOUS
 10
0.3690476190476191
 20
18.125
 30
0.0
 40
0.25
  1
D
  7
ROMAN
 72
     1
 11
0.5
 21
18.25
 31
0.0
 73
     2
  0
TEXT
  5
128A
  8
BORDER
  6
CONTINUOUS
 10
2.00595238095238
 20
20.625
 30
0.0
 40
0.25
  1
8
  7
ROMAN
 72
     1
 11
2.125
 21
20.75
 31
0.0
 73
     2
  0
LINE
  5
128B
  8
BORDER
  6
CONTINUOUS
 10
4.0625
 20
20.5
 30
0.0
 11
4.0625
 21
20.874999999999989
 31
0.0
  0
TEXT
  5
128C
  8
BORDER
  6
CONTINUOUS
 10
6.0000000000000009
 20
20.625
 30
0.0
 40
0.25
  1
7
  7
ROMAN
 72
     1
 11
6.1190476190476204
 21
20.75
 31
0.0
 73
     2
  0
LINE
  5
128D
  8
BORDER
  6
CONTINUOUS
 10
8.125
 20
20.5
 30
0.0
 11
8.125
 21
20.874999999999989
 31
0.0
  0
TEXT
  5
128E
  8
BORDER
  6
CONTINUOUS
 10
10.0
 20
20.625
 30
0.0
 40
0.25
  1
6
  7
ROMAN
 72
     1
 11
10.124999999999989
 21
20.75
 31
0.0
 73
     2
  0
LINE
  5
128F
  8
BORDER
  6
CONTINUOUS
 10
12.1875
 20
20.5
 30
0.0
 11
12.1875
 21
20.874999999999989
 31
0.0
  0
TEXT
  5
1290
  8
BORDER
  6
CONTINUOUS
 10
14.25
 20
20.625
 30
0.0
 40
0.25
  1
5
  7
ROMAN
 72
     1
 11
14.36904761904762
 21
20.75
 31
0.0
 73
     2
  0
SOLID
  5
1291
  8
BORDER
  6
CONTINUOUS
 10
31.699999999999999
 20
10.300000000000001
 30
0.0
 11
31.699999999999999
 21
10.699999999999999
 31
0.0
 12
31.5
 22
10.5
 32
0.0
 13
31.5
 23
10.5
 33
0.0
  0
LINE
  5
1292
  8
BORDER
  6
CONTINUOUS
 10
32.5
 20
0.0
 30
0.0
 11
32.5
 21
21.0
 31
0.0
  0
TEXT
  5
1293
  8
BORDER
  6
CONTINUOUS
 10
26.25
 20
0.125
 30
0.0
 40
0.25
  1
2
  7
ROMAN
 72
     1
 11
26.36904761904762
 21
0.25
 31
0.0
 73
     2
  0
POLYLINE
  5
1294
  8
BORDER
  6
CONTINUOUS
 66
     1
 10
0.0
 20
0.0
 30
0.0
 40
0.02
 41
0.02
  0
VERTEX
  5
2C22
  8
BORDER
  6
CONTINUOUS
 10
16.25
 20
0.0999999999999997
 30
0.0
  0
VERTEX
  5
2C23
  8
BORDER
  6
CONTINUOUS
 10
16.25
 20
0.2999999999999998
 30
0.0
  0
SEQEND
  5
2C24
  8
BORDER
  6
CONTINUOUS
  0
LINE
  5
1295
  8
BORDER
  6
CONTINUOUS
 10
16.25
 20
0.125
 30
0.0
 11
16.25
 21
0.5
 31
0.0
  0
TEXT
  5
1296
  8
BORDER
  6
CONTINUOUS
 10
18.0
 20
0.125
 30
0.0
 40
0.25
  1
4
  7
ROMAN
 72
     1
 11
18.125
 21
0.25
 31
0.0
 73
     2
  0
LINE
  5
1297
  8
BORDER
  6
CONTINUOUS
 10
20.3125
 20
0.5
 30
0.0
 11
20.3125
 21
0.125
 31
0.0
  0
TEXT
  5
1298
  8
BORDER
  6
CONTINUOUS
 10
22.25
 20
0.125
 30
0.0
 40
0.25
  1
3
  7
ROMAN
 72
     1
 11
22.36904761904761
 21
0.25
 31
0.0
 73
     2
  0
LINE
  5
1299
  8
BORDER
  6
CONTINUOUS
 10
24.375
 20
0.5
 30
0.0
 11
24.375
 21
0.125
 31
0.0
  0
LINE
  5
129A
  8
BORDER
  6
CONTINUOUS
 10
28.4375
 20
0.5
 30
0.0
 11
28.4375
 21
0.125
 31
0.0
  0
TEXT
  5
129B
  8
BORDER
  6
CONTINUOUS
 10
30.273809523809518
 20
0.125
 30
0.0
 40
0.25
  1
1
  7
ROMAN
 72
     1
 11
30.375
 21
0.25
 31
0.0
 73
     2
  0
LINE
  5
129C
  8
BORDER
  6
CONTINUOUS
 10
32.5
 20
0.125
 30
0.0
 11
32.5
 21
0.5
 31
0.0
  0
TEXT
  5
129D
  8
BORDER
  6
CONTINUOUS
 10
31.892857142857139
 20
2.625
 30
0.0
 40
0.25
  1
A
  7
ROMAN
 72
     1
 11
32.0
 21
2.75
 31
0.0
 73
     2
  0
LINE
  5
129E
  8
BORDER
  6
CONTINUOUS
 10
32.0
 20
5.25
 30
0.0
 11
31.5
 21
5.25
 31
0.0
  0
TEXT
  5
129F
  8
BORDER
  6
CONTINUOUS
 10
31.86904761904762
 20
7.7939050528381868
 30
0.0
 40
0.25
  1
B
  7
ROMAN
 72
     1
 11
32.0
 21
7.9189050528381868
 31
0.0
 73
     2
  0
TEXT
  5
12A0
  8
BORDER
  6
CONTINUOUS
 10
26.25
 20
20.625
 30
0.0
 40
0.25
  1
2
  7
ROMAN
 72
     1
 11
26.36904761904762
 21
20.75
 31
0.0
 73
     2
  0
POLYLINE
  5
12A1
  8
BORDER
  6
CONTINUOUS
 66
     1
 10
0.0
 20
0.0
 30
0.0
 40
0.02
 41
0.02
  0
VERTEX
  5
2C25
  8
BORDER
  6
CONTINUOUS
 10
16.25
 20
20.899999999999991
 30
0.0
  0
VERTEX
  5
2C26
  8
BORDER
  6
CONTINUOUS
 10
16.25
 20
20.699999999999989
 30
0.0
  0
SEQEND
  5
2C27
  8
BORDER
  6
CONTINUOUS
  0
LINE
  5
12A2
  8
BORDER
  6
CONTINUOUS
 10
16.25
 20
20.5
 30
0.0
 11
16.25
 21
20.874999999999989
 31
0.0
  0
TEXT
  5
12A3
  8
BORDER
  6
CONTINUOUS
 10
18.0
 20
20.625
 30
0.0
 40
0.25
  1
4
  7
ROMAN
 72
     1
 11
18.125
 21
20.75
 31
0.0
 73
     2
  0
LINE
  5
12A4
  8
BORDER
  6
CONTINUOUS
 10
20.3125
 20
20.5
 30
0.0
 11
20.3125
 21
20.874999999999989
 31
0.0
  0
TEXT
  5
12A5
  8
BORDER
  6
CONTINUOUS
 10
22.25
 20
20.625
 30
0.0
 40
0.25
  1
3
  7
ROMAN
 72
     1
 11
22.36904761904761
 21
20.75
 31
0.0
 73
     2
  0
LINE
  5
12A6
  8
BORDER
  6
CONTINUOUS
 10
24.375
 20
20.5
 30
0.0
 11
24.375
 21
20.874999999999989
 31
0.0
  0
LINE
  5
12A7
  8
BORDER
  6
CONTINUOUS
 10
31.5
 20
10.5
 30
0.0
 11
32.0
 21
10.5
 31
0.0
  0
POLYLINE
  5
12A8
  8
BORDER
  6
CONTINUOUS
 66
     1
 10
0.0
 20
0.0
 30
0.0
 40
0.02
 41
0.02
  0
VERTEX
  5
2C28
  8
BORDER
  6
CONTINUOUS
 10
31.899999999999999
 20
10.5
 30
0.0
  0
VERTEX
  5
2C29
  8
BORDER
  6
CONTINUOUS
 10
31.899999999999999
 20
10.5
 30
0.0
  0
SEQEND
  5
2C2A
  8
BORDER
  6
CONTINUOUS
  0
TEXT
  5
12A9
  8
BORDER
  6
CONTINUOUS
 10
31.875
 20
12.947994717441279
 30
0.0
 40
0.25
  1
C
  7
ROMAN
 72
     1
 11
32.0
 21
13.072994717441279
 31
0.0
 73
     2
  0
LINE
  5
12AA
  8
BORDER
  6
CONTINUOUS
 10
32.0
 20
15.75
 30
0.0
 11
31.5
 21
15.75
 31
0.0
  0
LINE
  5
12AB
  8
BORDER
  6
CONTINUOUS
 10
28.4375
 20
20.5
 30
0.0
 11
28.4375
 21
20.874999999999989
 31
0.0
  0
TEXT
  5
12AC
  8
BORDER
  6
CONTINUOUS
 10
30.273809523809518
 20
20.625
 30
0.0
 40
0.25
  1
1
  7
ROMAN
 72
     1
 11
30.375
 21
20.75
 31
0.0
 73
     2
  0
TEXT
  5
12AD
  8
BORDER
  6
CONTINUOUS
 10
31.86904761904762
 20
18.125
 30
0.0
 40
0.25
  1
D
  7
ROMAN
 72
     1
 11
32.0
 21
18.25
 31
0.0
 73
     2
  0
LINE
  5
12AE
  8
BORDER
  6
CONTINUOUS
 10
32.5
 20
20.5
 30
0.0
 11
32.5
 21
20.874999999999989
 31
0.0
  0
POLYLINE
  5
12AF
  8
BORDER
 66
     1
 10
0.0
 20
0.0
 30
0.0
 70
     1
 40
0.009
 41
0.009
  0
VERTEX
  5
2C2B
  8
BORDER
 10
1.0
 20
0.5
 30
0.0
  0
VERTEX
  5
2C2C
  8
BORDER
 10
31.5
 20
0.5
 30
0.0
  0
VERTEX
  5
2C2D
  8
BORDER
 10
31.5
 20
20.5
 30
0.0
  0
VERTEX
  5
2C2E
  8
BORDER
 10
1.0
 20
20.5
 30
0.0
  0
SEQEND
  5
2C2F
  8
BORDER
  0
INSERT
  5
1A02
  8
DIMENSIONS
  2
*U3
 10
0.0
 20
0.0
 30
0.0
  0
TEXT
  5
1A03
  8
BORDER_TEXT
  6
CONTINUOUS
 10
27.46195518649996
 20
0.5350985543883651
 30
0.0
 40
0.0653184
  1
DRN. BY:
  7
ROMAND
  0
TEXT
  5
1A04
  8
BORDER_TEXT
  6
CONTINUOUS
 10
28.565801895577628
 20
0.5350985543883651
 30
0.0
 40
0.0653184
  1
CHK'D:
  7
ROMAND
  0
TEXT
  5
1A09
  8
BORDER_TEXT
  6
CONTINUOUS
 10
28.565801895577628
 20
0.6640521609628723
 30
0.0
 40
0.0653184
  1
DATE:
  7
ROMAND
  0
TEXT
  5
1A0B
  8
BORDER_TEXT
  6
CONTINUOUS
 10
27.46195518649996
 20
0.6640521609628723
 30
0.0
 40
0.0653184
  1
SCALE:
  7
ROMAND
  0
TEXT
  5
1A0C
  8
BORDER_TEXT
  6
CONTINUOUS
 10
27.478691204100208
 20
0.9289189579891132
 30
0.0
 40
0.0653184
  1
TITLE
  7
ROMAND
  0
TEXT
  5
1A14
  8
BORDER_TEXT
  6
CONTINUOUS
 10
27.488180126570938
 20
2.296434112079297
 30
0.0
 40
0.08064
  1
REV
  7
ROMAND
  0
TEXT
  5
1A20
  8
BORDER_TEXT
  6
CONTINUOUS
 10
29.4630808076916
 20
0.6640521609628723
 30
0.0
 40
0.0653184
  1
DWG. NO.
  7
ROMAND
  0
TEXT
  5
1A24
  8
DIMENSIONS
 10
29.410440706064229
 20
2.1142125643065479
 30
0.0
 40
0.09
  1
http://groups.yahoo.com/group/astromechs/
 41
0.55
  7
ARIAL
  0
TEXT
  5
1A25
  8
BORDER_TEXT
  6
CONTINUOUS
 10
28.888581129523882
 20
2.296434112079297
 30
0.0
 40
0.08064
  1
CHANGE
  7
ROMAND
  0
TEXT
  5
1A26
  8
BORDER_TEXT
  6
CONTINUOUS
 10
30.376953795468719
 20
2.296434112079297
 30
0.0
 40
0.08064
  1
ECN
  7
ROMAND
  0
TEXT
  5
1A27
  8
BORDER_TEXT
  6
CONTINUOUS
 10
30.777369501951139
 20
2.296434112079297
 30
0.0
 40
0.08064
  1
DATE
  7
ROMAND
  0
TEXT
  5
1A28
  8
BORDER_TEXT
  6
CONTINUOUS
 10
31.154354669360689
 20
0.6640521609628723
 30
0.0
 40
0.0653184
  1
REV
  7
ROMAND
  0
TEXT
  5
1A29
  8
BORDER_TEXT
  6
CONTINUOUS
 10
31.239158624393021
 20
2.296434112079297
 30
0.0
 40
0.08064
  1
BY
  7
ROMAND
  0
INSERT
  5
25E6
  8
DIMENSIONS
  2
*U4
 10
0.0
 20
0.0
 30
0.0
  0
LINE
  5
260E
  8
BORDER_TEXT
 10
28.676500444661311
 20
1.6323119409312961
 30
0.0
 11
28.741666088664719
 21
1.581407759232675
 31
0.0
  0
TEXT
  5
260F
  8
DIMENSIONS
 10
27.793081933121979
 20
1.164271765541141
 30
0.0
 40
0.1063125
  1
A DROID BUILDERS GROUP
 41
0.55
  7
ARIAL
  0
TEXT
  5
2610
  8
DIMENSIONS
 10
27.585442703578931
 20
1.3135195685894581
 30
0.0
 40
0.3645
  1
Astromechs
 41
0.55
  7
ARIAL
  0
POLYLINE
  5
2611
  8
BORDER_TEXT
 66
     1
 10
0.0
 20
0.0
 30
0.0
 70
     1
  0
VERTEX
  5
2C40
  8
BORDER_TEXT
 10
28.454529984693771
 20
1.7015416399744709
 30
0.0
  0
VERTEX
  5
2C41
  8
BORDER_TEXT
 10
28.531914195085509
 20
1.7015416399744709
 30
0.0
  0
VERTEX
  5
2C42
  8
BORDER_TEXT
 10
28.531914195085509
 20
1.624167281622922
 30
0.0
  0
VERTEX
  5
2C43
  8
BORDER_TEXT
 10
28.454529984693771
 20
1.624167281622922
 30
0.0
  0
SEQEND
  5
2C44
  8
BORDER_TEXT
  0
POLYLINE
  5
2612
  8
BORDER_TEXT
 66
     1
 10
0.0
 20
0.0
 30
0.0
 70
     1
  0
VERTEX
  5
2C45
  8
BORDER_TEXT
 10
28.318089435193269
 20
1.7015416399744709
 30
0.0
  0
VERTEX
  5
2C46
  8
BORDER_TEXT
 10
28.39547364558501
 20
1.7015416399744709
 30
0.0
  0
VERTEX
  5
2C47
  8
BORDER_TEXT
 10
28.39547364558501
 20
1.624167281622922
 30
0.0
  0
VERTEX
  5
2C48
  8
BORDER_TEXT
 10
28.318089435193269
 20
1.624167281622922
 30
0.0
  0
SEQEND
  5
2C49
  8
BORDER_TEXT
  0
LINE
  5
2613
  8
BORDER_TEXT
 10
28.676500444661311
 20
1.697469310320284
 30
0.0
 11
28.676500444661311
 21
1.6323119409312961
 31
0.0
  0
POLYLINE
  5
2614
  8
BORDER_TEXT
 66
     1
 10
0.0
 20
0.0
 30
0.0
 70
     1
  0
VERTEX
  5
2C4A
  8
BORDER_TEXT
 10
28.59097053419427
 20
1.7015416399744709
 30
0.0
  0
VERTEX
  5
2C4B
  8
BORDER_TEXT
 10
28.668354744586001
 20
1.7015416399744709
 30
0.0
  0
VERTEX
  5
2C4C
  8
BORDER_TEXT
 10
28.668354744586001
 20
1.624167281622922
 30
0.0
  0
VERTEX
  5
2C4D
  8
BORDER_TEXT
 10
28.59097053419427
 20
1.624167281622922
 30
0.0
  0
SEQEND
  5
2C4E
  8
BORDER_TEXT
  0
POLYLINE
  5
2615
  8
BORDER_TEXT
 66
     1
 10
0.0
 20
0.0
 30
0.0
 70
     1
  0
VERTEX
  5
2C4F
  8
BORDER_TEXT
 10
28.122592546584009
 20
1.7015416399744709
 30
0.0
  0
VERTEX
  5
2C50
  8
BORDER_TEXT
 10
28.045208336192282
 20
1.7015416399744709
 30
0.0
  0
VERTEX
  5
2C51
  8
BORDER_TEXT
 10
28.045208336192282
 20
1.624167281622922
 30
0.0
  0
VERTEX
  5
2C52
  8
BORDER_TEXT
 10
28.122592546584009
 20
1.624167281622922
 30
0.0
  0
SEQEND
  5
2C53
  8
BORDER_TEXT
  0
LINE
  5
2616
  8
BORDER_TEXT
 10
28.037062636116971
 20
1.697469310320284
 30
0.0
 11
28.037062636116971
 21
1.6323119409312961
 31
0.0
  0
POLYLINE
  5
2617
  8
BORDER_TEXT
 66
     1
 10
0.0
 20
0.0
 30
0.0
 70
     1
  0
VERTEX
  5
2C54
  8
BORDER_TEXT
 10
28.259033096084512
 20
1.7015416399744709
 30
0.0
  0
VERTEX
  5
2C55
  8
BORDER_TEXT
 10
28.18164888569278
 20
1.7015416399744709
 30
0.0
  0
VERTEX
  5
2C56
  8
BORDER_TEXT
 10
28.18164888569278
 20
1.624167281622922
 30
0.0
  0
VERTEX
  5
2C57
  8
BORDER_TEXT
 10
28.259033096084512
 20
1.624167281622922
 30
0.0
  0
SEQEND
  5
2C58
  8
BORDER_TEXT
  0
LINE
  5
2618
  8
BORDER_TEXT
 10
28.037062636116971
 20
1.6323119409312961
 30
0.0
 11
27.97189699211356
 21
1.581407759232675
 31
0.0
  0
LINE
  5
2619
  8
BORDER_TEXT
 10
28.365640133936139
 20
2.1255806811953328
 30
0.0
 11
28.572456923135491
 21
2.0505233803077969
 31
0.0
  0
LINE
  5
261A
  8
BORDER_TEXT
 10
28.365640133936139
 20
2.0505233803077969
 30
0.0
 11
28.572456923135491
 21
2.0505233803077969
 31
0.0
  0
LINE
  5
261B
  8
BORDER_TEXT
 10
28.356781540389139
 20
2.145245201815646
 30
0.0
 11
28.62558980562785
 21
2.0476901487506312
 31
0.0
  0
LINE
  5
261C
  8
BORDER_TEXT
 10
28.356781540389139
 20
2.145245201815646
 30
0.0
 11
28.087973275150429
 21
2.0476901487506312
 31
0.0
  0
LINE
  5
261D
  8
BORDER_TEXT
 10
28.347922946842139
 20
2.0505233803077969
 30
0.0
 11
28.141106157642788
 21
2.0505233803077969
 31
0.0
  0
LINE
  5
261E
  8
BORDER_TEXT
 10
28.347922946842139
 20
2.1255806811953328
 30
0.0
 11
28.141106157642788
 21
2.0505233803077969
 31
0.0
  0
LINE
  5
261F
  8
BORDER_TEXT
 10
28.087973275150429
 20
2.0476901487506312
 30
0.0
 11
27.98207911992025
 21
1.7341203314491069
 31
0.0
  0
LINE
  5
2620
  8
BORDER_TEXT
 10
27.98207911992025
 20
1.7341203314491069
 30
0.0
 11
28.037062636116971
 21
1.697469310320284
 31
0.0
  0
CIRCLE
  5
2621
  8
BORDER_TEXT
 10
28.356781540389139
 20
1.908171217851748
 30
0.0
 40
0.0328991616731211
  0
CIRCLE
  5
2622
  8
BORDER_TEXT
 10
28.460463808619242
 20
1.908171217851748
 30
0.0
 40
0.0328991616731211
  0
CIRCLE
  5
2623
  8
BORDER_TEXT
 10
28.253099272159041
 20
1.908171217851748
 30
0.0
 40
0.0328991616731211
  0
LINE
  5
2624
  8
BORDER_TEXT
 10
28.365640133936139
 20
2.1255806811953328
 30
0.0
 11
28.365640133936139
 21
2.0505233803077969
 31
0.0
  0
LINE
  5
2625
  8
BORDER_TEXT
 10
28.347922946842139
 20
2.1255806811953328
 30
0.0
 11
28.347922946842139
 21
2.0505233803077969
 31
0.0
  0
LINE
  5
2626
  8
BORDER_TEXT
 10
28.62558980562785
 20
2.0476901487506312
 30
0.0
 11
28.731483960858029
 21
1.7341203314491069
 31
0.0
  0
LINE
  5
2627
  8
BORDER_TEXT
 10
28.731483960858029
 20
1.7341203314491069
 30
0.0
 11
28.676500444661311
 21
1.697469310320284
 31
0.0
  0
TEXT
  5
2A05
  8
DIMENSIONS
 10
14.418413304625901
 20
17.160882933015039
 30
0.0
 40
0.36
  1
LEVEL 1
 41
0.55
  7
ARIAL
  0
LINE
  5
2A06
  8
2X4TOP
 10
11.99261174542398
 20
19.276011089787328
 30
0.0000000000000029
 11
3.7152140574495571
 21
19.276011089787321
 31
0.0000000000000029
210
0.0
220
1.0
230
0.0
  0
LINE
  5
2A07
  8
2X4BTM
 10
1.500907625069928
 20
1.7760110897871471
 30
-0.0000000000000042
 11
1.500907625069928
 21
5.7760110897871888
 31
-0.0000000000000042
  0
LINE
  5
2A08
  8
2X4TOP
 10
2.2850642450319891
 20
10.776011089787239
 30
0.000000000000014
 11
2.2850642450320171
 21
14.776011089787289
 31
0.000000000000014
  0
LINE
  5
2A09
  8
2X4TOP
 10
3.7152140574495571
 20
15.27601108978728
 30
0.0000000000000029
 11
3.7152140574495571
 21
19.276011089787321
 31
0.0000000000000029
  0
LINE
  5
2A0A
  8
2X4BTM
 10
2.2850642450319318
 20
6.2760110897871888
 30
0.0000000000000024
 11
2.2850642450319318
 21
10.27601108978722
 31
0.0000000000000024
  0
LINE
  5
2A0B
  8
2X4TOP
 10
11.99261174542398
 20
15.27601108978728
 30
0.0000000000000029
 11
11.99261174542398
 21
19.276011089787321
 31
0.0000000000000029
  0
LINE
  5
2A0C
  8
2X4BTM
 10
13.42276155784149
 20
6.276011089787203
 30
0.0000000000000024
 11
13.42276155784149
 21
10.276011089787231
 31
0.0000000000000024
  0
LINE
  5
2A0D
  8
2X4TOP
 10
13.42276155784155
 20
10.77601108978725
 30
0.000000000000014
 11
13.42276155784155
 21
14.77601108978728
 31
0.000000000000014
  0
LINE
  5
2A0E
  8
2X4BTM
 10
14.2069181778035
 20
1.7760110897871471
 30
-0.0000000000000042
 11
14.2069181778035
 21
5.7760110897871888
 31
-0.0000000000000042
  0
LINE
  5
2A0F
  8
2X4TOP
 10
3.7152140574495571
 20
15.27601108978728
 30
0.0000000000000029
 11
11.99261174542398
 21
15.27601108978728
 31
0.0000000000000029
  0
LINE
  5
2A10
  8
2X4BTM
 10
14.2069181778035
 20
1.7760110897871471
 30
-0.0000000000000042
 11
1.500907625069928
 21
1.7760110897871471
 31
-0.0000000000000042
  0
LINE
  5
2A11
  8
2X4BTM
 10
14.2069181778035
 20
5.7760110897871888
 30
-0.0000000000000042
 11
1.500907625069928
 21
5.7760110897871888
 31
-0.0000000000000042
  0
LINE
  5
2A12
  8
2X4BTM
 10
12.239919758540321
 20
5.5119060822788617
 30
-0.0000000000000153
 11
6.576524409872988
 21
5.5119060822788546
 31
-0.0000000000000162
1001
ACAD
1000
ASC_BOUNDS
1002
{
1070
    19
1005
2A26
1005
2A26
1002
}
  0
LINE
  5
2A13
  8
2X4BTM
 10
6.5765244098729587
 20
1.979168796268197
 30
-0.0000000000000162
 11
6.576524409872988
 21
5.5119060822788546
 31
-0.0000000000000162
1001
ACAD
1000
ASC_BOUNDS
1002
{
1070
    19
1005
2A26
1002
}
  0
LINE
  5
2A14
  8
2X4BTM
 10
12.239919758540241
 20
1.9791687962682261
 30
-0.0000000000000153
 11
6.5765244098729587
 21
1.979168796268197
 31
-0.0000000000000153
1001
ACAD
1000
ASC_BOUNDS
1002
{
1070
    19
1005
2A26
1005
2A26
1002
}
  0
LINE
  5
2A15
  8
2X4BTM
 10
12.239919758540241
 20
1.9791687962682261
 30
-0.0000000000000153
 11
12.239919758540321
 21
5.5119060822788617
 31
-0.0000000000000153
1001
ACAD
1000
ASC_BOUNDS
1002
{
1070
    19
1005
2A26
1002
}
  0
LINE
  5
2A16
  8
2X4BTM
 10
12.17083184645243
 20
10.1156914911857
 30
0.0000000000000033
 11
6.6294680869039686
 21
10.1156914911857
 31
0.0000000000000024
1001
ACAD
1000
ASC_BOUNDS
1002
{
1070
    19
1005
2A26
1005
2A26
1002
}
  0
LINE
  5
2A17
  8
2X4BTM
 10
13.42276155784149
 20
10.276011089787209
 30
0.0000000000000033
 11
2.2850642450319318
 21
10.27601108978722
 31
0.0000000000000022
1001
ACAD
1000
ASC_BOUNDS
1002
{
1070
    19
1005
2A26
1002
}
  0
LINE
  5
2A18
  8
2X4BTM
 10
13.42276155784146
 20
6.2760110897871817
 30
0.0000000000000033
 11
2.2850642450319318
 21
6.2760110897871888
 31
0.0000000000000024
  0
LINE
  5
2A19
  8
2X4BTM
 10
12.170831846452449
 20
6.4588529928687493
 30
0.0000000000000033
 11
3.6968161406231408
 21
6.4588529928687199
 31
0.0000000000000024
1001
ACAD
1000
ASC_BOUNDS
1002
{
1070
    19
1005
2A26
1005
2A26
1002
}
  0
LINE
  5
2A1A
  8
2X4BTM
 10
3.6968161406231408
 20
6.4588529928687199
 30
0.0000000000000024
 11
3.6968161406229711
 21
10.27601108978722
 31
-0.0000000000000047
1001
ACAD
1000
ASC_BOUNDS
1002
{
1070
    19
1005
2A26
1002
}
  0
LINE
  5
2A1B
  8
2X4BTM
 10
6.6294680869039686
 20
10.11569149118572
 30
0.0000000000000024
 11
6.6294680869039411
 21
10.276011089787231
 31
-0.0000000000000047
1001
ACAD
1000
ASC_BOUNDS
1002
{
1070
    19
1005
2A26
1002
}
  0
LINE
  5
2A1C
  8
2X4BTM
 10
12.170831846452449
 20
6.4588529928687493
 30
0.0000000000000033
 11
12.17083184645243
 21
10.1156914911857
 31
0.0000000000000033
1001
ACAD
1000
ASC_BOUNDS
1002
{
1070
    19
1005
2A26
1002
}
  0
LINE
  5
2A1D
  8
2X4TOP
 10
12.170831846452449
 20
14.61569149118575
 30
0.0000000000000029
 11
6.4838417038944414
 21
14.61569149118575
 31
-0.0000000000000002
1001
ACAD
1000
ASC_BOUNDS
1002
{
1070
    19
1005
2A25
1005
2A25
1002
}
  0
LINE
  5
2A1E
  8
2X4TOP
 10
12.170831846452449
 20
10.958852992868779
 30
0.0000000000000029
 11
3.8488206804758671
 21
10.958852992868779
 31
0.0000000000000107
1001
ACAD
1000
ASC_BOUNDS
1002
{
1070
    19
1005
2A25
1005
2A25
1002
}
  0
LINE
  5
2A1F
  8
2X4TOP
 10
13.42276155784155
 20
14.77601108978728
 30
0.000000000000014
 11
2.2850642450320171
 21
14.776011089787289
 31
0.0000000000000109
1001
ACAD
1000
ASC_BOUNDS
1002
{
1070
    19
1005
2A25
1002
}
  0
LINE
  5
2A20
  8
2X4TOP
 10
13.42276155784155
 20
10.776011089787231
 30
0.0000000000000029
 11
2.2850642450319891
 21
10.776011089787239
 31
0.000000000000002
  0
LINE
  5
2A21
  8
2X4TOP
 10
3.8488206804758671
 20
10.958852992868779
 30
0.0000000000000107
 11
3.8488206804757819
 21
14.776011089787261
 31
0.0000000000000107
1001
ACAD
1000
ASC_BOUNDS
1002
{
1070
    19
1005
2A25
1002
}
  0
LINE
  5
2A22
  8
2X4TOP
 10
6.4838417038944414
 20
14.61569149118575
 30
-0.0000000000000002
 11
6.4838417038944121
 21
14.776011089787261
 31
-0.0000000000000002
1001
ACAD
1000
ASC_BOUNDS
1002
{
1070
    19
1005
2A25
1002
}
  0
LINE
  5
2A23
  8
2X4TOP
 10
12.170831846452449
 20
10.958852992868779
 30
0.0000000000000029
 11
12.170831846452449
 21
14.61569149118575
 31
0.0000000000000029
1001
ACAD
1000
ASC_BOUNDS
1002
{
1070
    19
1005
2A25
1002
}
  0
LINE
  5
2A24
  8
CENTER
 10
7.8539129014367708
 20
19.276011089787328
 30
0.0000000000000029
 11
7.8539129014367139
 21
1.7760110897871471
 31
-0.0000000000000042
1001
ACAD
1000
ASC_BOUNDS
1002
{
1070
    19
1005
2A26
1005
2A26
1005
2A26
1005
2A26
1005
2A25
1005
2A25
1002
}
  0
INSERT
  5
2A25
  8
2X4TOP
  6
CONTINUOUS
  2
*X5
 10
0.0
 20
0.0
 30
0.0
1001
ACAD
1000
HATCH
1002
{
1070
    19
1000
ANSI31
1040
3.0
1040
0.0
1000
ASC_BOUNDS
1070
     2
1070
     1
1070
     6
1005
2A24
1005
2A1E
1005
2A21
1005
2A1F
1005
2A22
1005
2A1D
1070
     1
1070
     4
1005
2A23
1005
2A1E
1005
2A24
1005
2A1D
1000
ASC_SEEDPOINT
1011
9.9392259833298482
1021
3.5127649040635017E+151
1031
0.0
1021
12.54775068897399
1031
0.0
1000
R14_HATCH_DATA
1000
2A25
1011
1.0
1021
3.5127649040635017E+151
1031
0.0
1021
0.0
1031
0.0
1011
0.0
1021
3.5127649040635017E+151
1031
0.0
1021
1.0
1031
0.0
1011
0.0
1021
3.5127649040635017E+151
1031
0.0
1021
0.0
1031
1.0
1040
0.0
1010
0.0
1020
0.0
1030
1.0
1000
ANSI31
1070
     0
1070
     1
1071
        2
1071
        7
1070
     0
1070
     1
1071
        4
1040
12.170831846452449
1040
10.958852992868779
1040
12.170831846452449
1040
14.61569149118576
1040
7.8539129014367548
1040
14.61569149118575
1040
7.8539129014367441
1040
10.958852992868779
1071
        4
1005
2A1D
1005
2A24
1005
2A1E
1005
2A23
1071
        7
1070
     0
1070
     1
1071
        6
1040
7.8539129014367433
1040
10.958852992868779
1040
7.8539129014367557
1040
14.61569149118575
1040
6.4838417038944423
1040
14.615691491185739
1040
6.4838417038944121
1040
14.77601108978728
1040
3.848820680475781
1040
14.77601108978728
1040
3.8488206804758671
1040
10.958852992868779
1071
        6
1005
2A1D
1005
2A22
1005
2A1F
1005
2A21
1005
2A1E
1005
2A24
1070
     0
1070
     1
1040
0.0
1040
3.0
1070
     0
1070
     1
1040
0.7853981633974483
1040
-186.09775754545211
1040
67.050226945206248
1040
-0.2651650429449553
1040
0.2651650429449553
1070
     0
1040
0.040086425345548
1071
        2
1040
9.9392259833298482
1040
12.54775068897399
1040
0.0
1040
5.9290084770770051
1040
12.627923545881091
1040
0.0
1002
}
  0
INSERT
  5
2A26
  8
2X4BTM
  6
CONTINUOUS
  2
*X6
 10
0.0
 20
0.0
 30
0.0
1001
ACAD
1000
HATCH
1002
{
1070
    19
1000
ANSI31
1040
3.0
1040
0.0
1000
ASC_BOUNDS
1070
     4
1070
     1
1070
     4
1005
2A24
1005
2A14
1005
2A13
1005
2A12
1070
     1
1070
     4
1005
2A15
1005
2A14
1005
2A24
1005
2A12
1070
     1
1070
     6
1005
2A24
1005
2A19
1005
2A1A
1005
2A17
1005
2A1B
1005
2A16
1070
     1
1070
     4
1005
2A1C
1005
2A19
1005
2A24
1005
2A16
1000
ASC_SEEDPOINT
1011
8.8965694601819933
1021
3.5127649040635017E+151
1031
0.0
1021
8.0179846076230277
1031
0.0
1000
R14_HATCH_DATA
1000
2A26
1011
1.0
1021
3.5127649040635017E+151
1031
0.0
1021
0.0
1031
0.0
1011
0.0
1021
3.5127649040635017E+151
1031
0.0
1021
1.0
1031
0.0
1011
0.0
1021
3.5127649040635017E+151
1031
0.0
1021
0.0
1031
1.0
1040
0.0
1010
0.0
1020
0.0
1030
1.0
1000
ANSI31
1070
     0
1070
     1
1071
        4
1071
        7
1070
     0
1070
     1
1071
        4
1040
7.8539129014367299
1040
6.458852992868735
1040
12.170831846452449
1040
6.4588529928687501
1040
12.170831846452421
1040
10.1156914911857
1040
7.8539129014367406
1040
10.1156914911857
1071
        4
1005
2A16
1005
2A24
1005
2A19
1005
2A1C
1071
        7
1070
     0
1070
     1
1071
        6
1040
7.8539129014367397
1040
10.1156914911857
1040
6.6294680869039686
1040
10.1156914911857
1040
6.6294680869039411
1040
10.276011089787209
1040
3.6968161406229711
1040
10.27601108978722
1040
3.6968161406231408
1040
6.4588529928687199
1040
7.853912901436729
1040
6.4588529928687342
1071
        6
1005
2A16
1005
2A1B
1005
2A17
1005
2A1A
1005
2A19
1005
2A24
1071
        7
1070
     0
1070
     1
1071
        4
1040
7.8539129014367264
1040
5.5119060822788573
1040
7.8539129014367148
1040
1.9791687962682041
1040
12.239919758540241
1040
1.9791687962682261
1040
12.239919758540321
1040
5.5119060822788617
1071
        4
1005
2A12
1005
2A24
1005
2A14
1005
2A15
1071
        7
1070
     0
1070
     1
1071
        4
1040
7.8539129014367246
1040
5.5119060822788573
1040
6.576524409872988
1040
5.5119060822788546
1040
6.5765244098729587
1040
1.979168796268197
1040
7.8539129014367131
1040
1.979168796268203
1071
        4
1005
2A12
1005
2A13
1005
2A14
1005
2A24
1070
     0
1070
     1
1040
0.0
1040
3.0
1070
     0
1070
     1
1040
0.7853981633974483
1040
-186.09775754545211
1040
67.050226945206248
1040
-0.2651650429449553
1040
0.2651650429449553
1070
     0
1040
0.040086425345548
1071
        4
1040
8.8965694601819933
1040
8.0179846076230277
1040
0.0
1040
7.1320737289528457
1040
8.1382439152437271
1040
0.0
1040
10.13973685864247
1040
4.7308977415521047
1040
0.0
1040
7.2924824576808902
1040
4.0895149308153256
1040
0.0
1002
}
  0
TEXT
  5
2A27
  8
DIMENSIONS
 10
14.418413304625901
 20
12.77392679949161
 30
0.0
 40
0.36
  1
LEVEL 2
 41
0.55
  7
ARIAL
  0
TEXT
  5
2A28
  8
DIMENSIONS
 10
14.418413304625901
 20
8.0767817421511268
 30
0.0
 40
0.36
  1
LEVEL 3
 41
0.55
  7
ARIAL
  0
TEXT
  5
2A29
  8
DIMENSIONS
 10
14.418413304625901
 20
3.468262091615542
 30
0.0
 40
0.36
  1
LEVEL 4
 41
0.55
  7
ARIAL
  0
LINE
  5
2A2A
  8
2X4BTM
 10
19.56948276786941
 20
17.81553273076635
 30
0.0
 11
16.747829918162989
 21
17.815532730766339
 31
0.0
  0
LINE
  5
2A2B
  8
2X4BTM
 10
19.56948276786941
 20
17.81553273076635
 30
0.0
 11
19.56948276786947
 21
20.087185438250248
 31
0.0
  0
LINE
  5
2A5A
  8
2X4BTM
 10
16.747829918163031
 20
19.60153341971391
 30
0.0000000000000153
 11
17.233481936699349
 21
20.087185438250231
 31
0.0000000000000153
  0
LINE
  5
2A5B
  8
2X4BTM
 10
16.747829918163021
 20
19.071203333824009
 30
0.0000000000000153
 11
17.763812022589239
 21
20.087185438250241
 31
0.0000000000000153
  0
LINE
  5
2A5C
  8
2X4BTM
 10
16.74782991816301
 20
18.540873247934059
 30
0.0000000000000153
 11
18.294142108479189
 21
20.087185438250241
 31
0.0000000000000153
  0
LINE
  5
2A5D
  8
2X4BTM
 10
16.747829918162989
 20
18.010543162044161
 30
0.0000000000000153
 11
18.824472194369079
 21
20.087185438250248
 31
0.0000000000000153
  0
LINE
  5
2A5E
  8
2X4BTM
 10
17.083149572775099
 20
17.81553273076635
 30
0.0000000000000153
 11
19.354802280259001
 21
20.087185438250248
 31
0.0000000000000153
  0
LINE
  5
2A5F
  8
2X4BTM
 10
17.613479658665
 20
17.815532730766339
 30
0.0000000000000153
 11
19.569482767869459
 21
19.771535839970799
 31
0.0000000000000153
  0
LINE
  5
2A60
  8
2X4BTM
 10
18.1438097445549
 20
17.81553273076635
 30
0.0000000000000153
 11
19.56948276786942
 21
19.24120575408087
 31
0.0000000000000153
  0
LINE
  5
2A61
  8
2X4BTM
 10
18.67413983044483
 20
17.815532730766339
 30
0.0000000000000153
 11
19.569482767869431
 21
18.710875668190951
 31
0.0000000000000153
  0
LINE
  5
2A62
  8
2X4BTM
 10
19.20446991633473
 20
17.81553273076635
 30
0.0000000000000153
 11
19.56948276786942
 21
18.18054558230104
 31
0.0000000000000153
  0
LINE
  5
2A63
  8
2X4BTM
 10
19.56948276786941
 20
20.087185438250248
 30
0.0
 11
16.747829918163049
 21
20.087185438250231
 31
0.0
  0
LINE
  5
2A64
  8
2X4BTM
 10
16.747829918162989
 20
17.81553273076635
 30
0.0
 11
16.747829918163049
 21
20.087185438250231
 31
0.0
  0
TEXT
  5
2A65
  8
DIMENSIONS
 10
16.71095539506463
 20
16.647652693280801
 30
0.0000000000000153
 40
0.36
  1
AREA TO BE CUT OUT
 41
0.55
  7
ARIAL
  0
LINE
  5
2B0B
  8
2X4BTM
 10
31.011990283361332
 20
3.2512933729819622
 30
0.0
 11
18.305979730627769
 21
3.2512933729819622
 31
0.0
  0
LINE
  5
2B0C
  8
2X4BTM
 10
18.305979730627769
 20
3.2512933729819622
 30
0.0
 11
18.305979730627769
 21
4.1546857125069252
 31
0.0
  0
LINE
  5
2B0D
  8
2X4BTM
 10
18.305979730627769
 20
4.1546857125069252
 30
0.0
 11
19.1590039917869
 21
5.2512933729819631
 31
0.0
  0
LINE
  5
2B0E
  8
2X4BTM
 10
31.011990283361332
 20
3.2512933729819622
 30
0.0
 11
31.011990283361332
 21
4.1546857125068613
 31
0.0
  0
LINE
  5
2B0F
  8
2X4BTM
 10
31.011990283361332
 20
4.1546857125068613
 30
0.0
 11
30.1589660222022
 21
5.2512933729819622
 31
0.0
  0
LINE
  5
2B10
  8
2X4TOP
 10
28.603214969378879
 20
7.2512933729819622
 30
0.0
 11
20.714755044610321
 21
7.2512933729819622
 31
0.0
  0
ARC
  5
2B12
  8
2X4TOP
 10
21.971403297742839
 20
4.8578584335887101
 30
0.0
 40
1.375000000000002
 50
16.62667511889012
 51
163.3733248811098
1001
ACAD
1000
ASC_BOUNDS
1002
{
1070
    19
1005
2B4D
1005
2B4D
1002
}
  0
CIRCLE
  5
2B13
  8
2X4BTM
 10
26.154524778062768
 20
3.9763145147249039
 30
0.0
 40
0.1574999999999993
  0
LINE
  5
2B17
  8
2X4TOP
 10
30.1589660222022
 20
5.2512933729819622
 30
0.0
 11
19.1590039917869
 21
5.2512933729819631
 31
0.0
1001
ACAD
1000
ASC_BOUNDS
1002
{
1070
    19
1005
2B55
1005
2B4D
1002
}
  0
ARC
  5
2B21
  8
2X4BTM
 10
26.279524778062768
 20
3.9763145147249039
 30
0.0
 40
0.1574999999999993
 50
270.0
 51
90.0
  0
ARC
  5
2B22
  8
2X4BTM
 10
26.029524778062768
 20
3.9763145147249039
 30
0.0
 40
0.1574999999999993
 50
90.0
 51
270.0
  0
LINE
  5
2B26
  8
2X4BTM
 10
26.279524778062768
 20
4.1338145147249028
 30
0.0
 11
26.029524778062768
 21
4.1338145147249028
 31
0.0
  0
LINE
  5
2B27
  8
2X4BTM
 10
26.279524778062768
 20
3.8188145147249051
 30
0.0
 11
26.029524778062768
 21
3.8188145147249051
 31
0.0
  0
LINE
  5
2B28
  8
2X4BTM
 10
31.011990283361332
 20
8.5290617682607177
 30
0.0
 11
18.305979730627769
 21
8.5290617682607177
 31
0.0
  0
LINE
  5
2B29
  8
2X4BTM
 10
18.305979730627769
 20
8.5290617682607177
 30
0.0
 11
18.305979730627769
 21
9.4324541077856807
 31
0.0
  0
LINE
  5
2B2A
  8
2X4BTM
 10
18.305979730627769
 20
9.4324541077856807
 30
0.0
 11
19.1590039917869
 21
10.529061768260711
 31
0.0
  0
LINE
  5
2B2B
  8
2X4BTM
 10
31.011990283361332
 20
8.5290617682607177
 30
0.0
 11
31.011990283361332
 21
9.4324541077856168
 31
0.0
  0
LINE
  5
2B2C
  8
2X4BTM
 10
31.011990283361332
 20
9.4324541077856168
 30
0.0
 11
30.1589660222022
 21
10.529061768260711
 31
0.0
  0
LINE
  5
2B2D
  8
2X4TOP
 10
28.603214969378879
 20
12.529061768260711
 30
0.0
 11
20.714755044610321
 21
12.529061768260711
 31
0.0
  0
CIRCLE
  5
2B2F
  8
2X4BTM
 10
26.154524778062768
 20
9.2540829100036603
 30
0.0
 40
0.1574999999999993
  0
CIRCLE
  5
2B30
  8
2X4BTM
 10
22.780964936601698
 20
9.9650211835285134
 30
0.0
 40
0.0959999999999997
  0
CIRCLE
  5
2B31
  8
2X4TOP
 10
21.71437130120604
 20
10.922030596718081
 30
0.0
 40
0.0960000000000004
  0
CIRCLE
  5
2B32
  8
2X4BTM
 10
21.41887365542086
 20
9.5198287063558809
 30
0.0
 40
0.0960000000000008
  0
LINE
  5
2B33
  8
2X4TOP
 10
30.1589660222022
 20
10.529061768260711
 30
0.0
 11
19.1590039917869
 21
10.529061768260711
 31
0.0
  0
ARC
  5
2B34
  8
2X4BTM
 10
26.279524778062768
 20
9.2540829100036603
 30
0.0
 40
0.1574999999999993
 50
270.0
 51
90.0
  0
ARC
  5
2B35
  8
2X4BTM
 10
26.029524778062768
 20
9.2540829100036603
 30
0.0
 40
0.1574999999999993
 50
90.0
 51
270.0
  0
LINE
  5
2B36
  8
2X4BTM
 10
26.279524778062768
 20
9.4115829100036592
 30
0.0
 11
26.029524778062768
 21
9.4115829100036592
 31
0.0
  0
LINE
  5
2B37
  8
2X4BTM
 10
26.279524778062768
 20
9.0965829100036615
 30
0.0
 11
26.029524778062768
 21
9.0965829100036615
 31
0.0
  0
LINE
  5
2B38
  8
CENTER
 10
24.658985006994548
 20
3.2512933729819622
 30
0.0
 11
24.658985006994609
 21
12.529061768260711
 31
0.0
  0
LINE
  5
2B39
  8
2X4TOP
 10
28.70044941018034
 20
12.404061768260711
 30
0.0
 11
20.61752060380886
 21
12.404061768260711
 31
0.0
  0
LINE
  5
2B3A
  8
2X4BTM
 10
31.011990283361332
 20
8.6540617682607177
 30
0.0
 11
18.305979730627769
 21
8.6540617682607177
 31
0.0
  0
LINE
  5
2B3B
  8
2X4TOP
 10
30.061731581400739
 20
10.654061768260711
 30
0.0
 11
19.256238432588361
 21
10.654061768260711
 31
0.0
  0
LINE
  5
2B3C
  8
2X4BTM
 10
30.256200463003658
 20
10.404061768260711
 30
0.0
 11
19.061769550985431
 21
10.404061768260711
 31
0.0
  0
LINE
  5
2B3D
  8
2X4TOP
 10
28.70044941018034
 20
7.1262933729819622
 30
0.0
 11
20.61752060380886
 21
7.1262933729819622
 31
0.0
  0
LINE
  5
2B3E
  8
2X4TOP
 10
30.06173158140075
 20
5.3762933729819622
 30
0.0
 11
19.256238432588361
 21
5.3762933729819622
 31
0.0
1001
ACAD
1000
ASC_BOUNDS
1002
{
1070
    19
1005
2B4D
1005
2B4D
1002
}
  0
LINE
  5
2B3F
  8
2X4BTM
 10
30.256200463003658
 20
5.1262933729819622
 30
0.0
 11
19.061769550985431
 21
5.1262933729819613
 31
0.0
1001
ACAD
1000
ASC_BOUNDS
1002
{
1070
    19
1005
2B55
1005
2B55
1002
}
  0
LINE
  5
2B40
  8
2X4BTM
 10
31.011990283361332
 20
3.3762933729819622
 30
0.0
 11
18.305979730627769
 21
3.3762933729819622
 31
0.0
  0
LINE
  5
2B41
  8
2X4TOP
 10
19.1590039917869
 20
10.529061768260711
 30
0.0
 11
20.714755044610321
 21
12.529061768260711
 31
0.0
  0
LINE
  5
2B42
  8
2X4TOP
 10
28.603214969378879
 20
7.2512933729819622
 30
0.0
 11
30.1589660222022
 21
5.2512933729819622
 31
0.0
  0
LINE
  5
2B43
  8
2X4TOP
 10
19.1590039917869
 20
5.2512933729819631
 30
0.0
 11
20.714755044610321
 21
7.2512933729819622
 31
0.0
  0
LINE
  5
2B44
  8
2X4TOP
 10
30.1589660222022
 20
10.529061768260711
 30
0.0
 11
28.603214969378879
 21
12.529061768260711
 31
0.0
  0
ARC
  5
2B45
  8
2X4BTM
 10
21.971403297742839
 20
4.8578584335887101
 30
0.0
 40
1.375000000000002
 50
163.3733248811098
 51
16.62667511889012
1001
ACAD
1000
ASC_BOUNDS
1002
{
1070
    19
1005
2B55
1005
2B55
1002
}
  0
INSERT
  5
2B4D
  8
2X4TOP
  6
CONTINUOUS
  2
*X7
 10
0.0
 20
0.0
 30
0.0
1001
ACAD
1000
HATCH
1002
{
1070
    19
1000
ANSI31
1040
1.0
1040
0.0
1000
ASC_BOUNDS
1070
     2
1070
     1
1070
     3
1005
2B17
1005
2B12
1005
2B3E
1070
     1
1070
     2
1005
2B12
1005
2B3E
1000
ASC_SEEDPOINT
1011
22.432194820946691
1021
3.5127649040635017E+151
1031
0.0
1021
5.9151796870223734
1031
0.0
1000
R14_HATCH_DATA
1000
2B4D
1011
1.0
1021
3.5127649040635017E+151
1031
0.0
1021
0.0
1031
0.0
1011
0.0
1021
3.5127649040635017E+151
1031
0.0
1021
1.0
1031
0.0
1011
0.0
1021
3.5127649040635017E+151
1031
0.0
1021
0.0
1031
1.0
1040
0.0
1010
0.0
1020
0.0
1030
1.0
1000
ANSI31
1070
     0
1070
     1
1071
        2
1071
        7
1070
     1
1070
     1
1071
        2
1040
20.69788446646616
1040
5.3762933729819622
1040
0.0
1040
23.244922129019521
1040
5.3762933729819622
1040
0.6725970904945795
1071
        2
1005
2B3E
1005
2B12
1071
        7
1070
     1
1070
     1
1071
        4
1040
20.69788446646616
1040
5.3762933729819622
1040
0.0241076684211606
1040
20.653892786033492
1040
5.2512933729819631
1040
0.0
1040
23.28891380945219
1040
5.2512933729819631
1040
0.0241076684211608
1040
23.244922129019521
1040
5.3762933729819622
1040
0.0
1071
        3
1005
2B3E
1005
2B12
1005
2B17
1070
     0
1070
     1
1040
0.0
1040
1.0
1070
     0
1070
     1
1040
0.7853981633974483
1040
0.6401060353520905
1040
-1.0740138516217561
1040
-0.0883883476483184
1040
0.0883883476483185
1070
     0
1040
0.0179693920969507
1071
        2
1040
22.432194820946691
1040
5.9151796870223734
1040
0.0
1040
22.486123403290431
1040
5.3401591487556033
1040
0.0
1002
}
  0
INSERT
  5
2B55
  8
2X4BTM
  6
CONTINUOUS
  2
*X8
 10
0.0
 20
0.0
 30
0.0
1001
ACAD
1000
HATCH
1002
{
1070
    19
1000
ANSI31
1040
1.0
1040
0.0
1000
ASC_BOUNDS
1070
     2
1070
     1
1070
     3
1005
2B3F
1005
2B45
1005
2B17
1070
     1
1070
     2
1005
2B45
1005
2B3F
1000
ASC_SEEDPOINT
1011
22.61195683635955
1021
3.5127649040635017E+151
1031
0.0
1021
4.5315365455041521
1031
0.0
1000
R14_HATCH_DATA
1000
2B55
1011
1.0
1021
3.5127649040635017E+151
1031
0.0
1021
0.0
1031
0.0
1011
0.0
1021
3.5127649040635017E+151
1031
0.0
1021
1.0
1031
0.0
1011
0.0
1021
3.5127649040635017E+151
1031
0.0
1021
0.0
1031
1.0
1040
0.0
1010
0.0
1020
0.0
1030
1.0
1000
ANSI31
1070
     0
1070
     1
1071
        2
1071
        7
1070
     1
1070
     1
1071
        2
1040
20.622860497786931
1040
5.1262933729819613
1040
1.2186746608613139
1040
23.319946097698761
1040
5.1262933729819613
1040
0.0
1071
        2
1005
2B3F
1005
2B45
1071
        7
1070
     1
1070
     1
1071
        4
1040
23.319946097698761
1040
5.1262933729819613
1040
0.0234300227058227
1040
23.28891380945219
1040
5.2512933729819631
1040
0.0
1040
20.653892786033492
1040
5.2512933729819631
1040
0.0234300227058229
1040
20.622860497786931
1040
5.1262933729819613
1040
0.0
1071
        3
1005
2B17
1005
2B45
1005
2B3F
1070
     0
1070
     1
1040
0.0
1040
1.0
1070
     0
1070
     1
1040
0.7853981633974483
1040
0.6401060353520905
1040
-1.0740138516217561
1040
-0.0883883476483184
1040
0.0883883476483185
1070
     0
1040
0.0179693920969507
1071
        2
1040
22.61195683635955
1040
4.5315365455041521
1040
0.0
1040
22.647909150321631
1040
5.1424958629993389
1040
0.0
1002
}
  0
LINE
  5
2B8D
  8
CENTER_FOOT
 10
29.384526496584691
 20
13.97478597469026
 30
0.0
 11
29.384526496584691
 21
19.97478597469026
 31
0.0
  0
TEXT
  5
2B8E
  8
DIMENSIONS
 10
29.809640997922109
 20
16.425584815133131
 30
0.0
 40
0.2
  1
(inches)
 50
90.0
  0
LINE
  5
2B8F
  8
CENTER_FOOT
 10
30.593199784638369
 20
13.97478597469026
 30
0.0
 11
30.593199784638369
 21
17.911785974690261
 31
0.0
  0
LINE
  5
2B90
  8
CENTER_FOOT
 10
29.384526496584691
 20
14.97478597469026
 30
0.0
 11
29.134526496584702
 21
14.97478597469026
 31
0.0
  0
LINE
  5
2B91
  8
CENTER_FOOT
 10
29.384526496584691
 20
13.97478597469026
 30
0.0
 11
29.134526496584702
 21
13.97478597469026
 31
0.0
  0
TEXT
  5
2B92
  8
DIMENSIONS
 10
28.993971710513289
 20
13.896087538315751
 30
0.0
 40
0.2
  1
0
 50
90.0
  0
TEXT
  5
2B93
  8
DIMENSIONS
 10
28.993971710513289
 20
14.896087538315751
 30
0.0
 40
0.2
  1
1
 50
90.0
  0
TEXT
  5
2B94
  8
DIMENSIONS
 10
30.20264499856696
 20
13.896087538315751
 30
0.0
 40
0.2
  1
0
 50
90.0
  0
LINE
  5
2B95
  8
CENTER_FOOT
 10
30.593199784638369
 20
13.97478597469026
 30
0.0
 11
30.343199784638369
 21
13.97478597469026
 31
0.0
  0
LINE
  5
2B96
  8
CENTER_FOOT
 10
29.384526496584691
 20
15.97478597469026
 30
0.0
 11
29.134526496584702
 21
15.97478597469026
 31
0.0
  0
TEXT
  5
2B97
  8
DIMENSIONS
 10
28.993971710513289
 20
15.896087538315751
 30
0.0
 40
0.2
  1
2
 50
90.0
  0
TEXT
  5
2B98
  8
DIMENSIONS
 10
31.01831428597578
 20
15.424170946419281
 30
0.0
 40
0.2
  1
(cm)
 50
90.0
  0
TEXT
  5
2B99
  8
DIMENSIONS
 10
30.20264499856696
 20
15.886841267035109
 30
0.0
 40
0.2
  1
5
 50
90.0
  0
LINE
  5
2B9A
  8
CENTER_FOOT
 10
30.593199784638369
 20
15.943285974690269
 30
0.0
 11
30.343199784638369
 21
15.94328597469026
 31
0.0
  0
LINE
  5
2B9B
  8
CENTER_FOOT
 10
29.384526496584691
 20
16.97478597469026
 30
0.0
 11
29.134526496584702
 21
16.97478597469026
 31
0.0
  0
TEXT
  5
2B9C
  8
DIMENSIONS
 10
28.993971710513289
 20
16.896087538315751
 30
0.0
 40
0.2
  1
3
 50
90.0
  0
LINE
  5
2B9D
  8
CENTER_FOOT
 10
29.384526496584691
 20
18.97478597469026
 30
0.0
 11
29.134526496584702
 21
18.97478597469026
 31
0.0
  0
LINE
  5
2B9E
  8
CENTER_FOOT
 10
29.384526496584691
 20
17.97478597469026
 30
0.0
 11
29.134526496584702
 21
17.97478597469026
 31
0.0
  0
TEXT
  5
2B9F
  8
DIMENSIONS
 10
28.993971710513289
 20
17.896087538315751
 30
0.0
 40
0.2
  1
4
 50
90.0
  0
TEXT
  5
2BA0
  8
DIMENSIONS
 10
28.993971710513289
 20
18.896087538315751
 30
0.0
 40
0.2
  1
5
 50
90.0
  0
TEXT
  5
2BA1
  8
DIMENSIONS
 10
30.20264499856696
 20
17.788580237823329
 30
0.0
 40
0.2
  1
10
 50
90.0
  0
LINE
  5
2BA2
  8
CENTER_FOOT
 10
30.593199784638369
 20
17.911785974690261
 30
0.0
 11
30.343199784638369
 21
17.911785974690261
 31
0.0
  0
LINE
  5
2BA3
  8
CENTER_FOOT
 10
21.401849271368071
 20
19.29727124187793
 30
0.0
 11
27.401849271368071
 21
19.29727124187793
 31
0.0
  0
TEXT
  5
2BA4
  8
DIMENSIONS
 10
22.851234243097089
 20
17.66348345248684
 30
0.0
 40
0.2
  1
(cm)
  0
LINE
  5
2BA5
  8
CENTER_FOOT
 10
29.384526496584691
 20
19.97478597469026
 30
0.0
 11
29.134526496584702
 21
19.97478597469026
 31
0.0
  0
TEXT
  5
2BA6
  8
DIMENSIONS
 10
28.993971710513289
 20
19.896087538315751
 30
0.0
 40
0.2
  1
6
 50
90.0
  0
LINE
  5
2BA7
  8
CENTER_FOOT
 10
21.401849271368071
 20
18.088597953824259
 30
0.0
 11
25.338849271368069
 21
18.088597953824259
 31
0.0
  0
TEXT
  5
2BA8
  8
DIMENSIONS
 10
21.323150834993559
 20
18.479152739895671
 30
0.0
 40
0.2
  1
0
  0
LINE
  5
2BA9
  8
CENTER_FOOT
 10
21.401849271368071
 20
18.088597953824259
 30
0.0
 11
21.401849271368071
 21
18.338597953824259
 31
0.0
  0
TEXT
  5
2BAA
  8
DIMENSIONS
 10
21.323150834993559
 20
19.687826027949338
 30
0.0
 40
0.2
  1
0
  0
LINE
  5
2BAB
  8
CENTER_FOOT
 10
21.401849271368071
 20
19.29727124187793
 30
0.0
 11
21.401849271368071
 21
19.54727124187793
 31
0.0
  0
TEXT
  5
2BAC
  8
DIMENSIONS
 10
22.323150834993569
 20
19.687826027949338
 30
0.0
 40
0.2
  1
1
  0
LINE
  5
2BAD
  8
CENTER_FOOT
 10
22.401849271368071
 20
19.29727124187793
 30
0.0
 11
22.401849271368071
 21
19.54727124187793
 31
0.0
  0
TEXT
  5
2BAE
  8
DIMENSIONS
 10
23.313904563712931
 20
18.479152739895671
 30
0.0
 40
0.2
  1
5
  0
LINE
  5
2BAF
  8
CENTER_FOOT
 10
23.370349271368081
 20
18.088597953824259
 30
0.0
 11
23.370349271368081
 21
18.338597953824259
 31
0.0
  0
TEXT
  5
2BB0
  8
DIMENSIONS
 10
23.85264811181095
 20
18.872156740540522
 30
0.0
 40
0.2
  1
(inches)
  0
TEXT
  5
2BB1
  8
DIMENSIONS
 10
25.21564353450114
 20
18.479152739895671
 30
0.0
 40
0.2
  1
10
  0
LINE
  5
2BB2
  8
CENTER_FOOT
 10
25.338849271368069
 20
18.088597953824259
 30
0.0
 11
25.338849271368069
 21
18.338597953824259
 31
0.0
  0
TEXT
  5
2BB3
  8
DIMENSIONS
 10
24.323150834993569
 20
19.687826027949338
 30
0.0
 40
0.2
  1
3
  0
TEXT
  5
2BB4
  8
DIMENSIONS
 10
23.323150834993569
 20
19.687826027949338
 30
0.0
 40
0.2
  1
2
  0
LINE
  5
2BB5
  8
CENTER_FOOT
 10
23.401849271368079
 20
19.29727124187793
 30
0.0
 11
23.401849271368079
 21
19.54727124187793
 31
0.0
  0
LINE
  5
2BB6
  8
CENTER_FOOT
 10
24.401849271368079
 20
19.29727124187793
 30
0.0
 11
24.401849271368079
 21
19.54727124187793
 31
0.0
  0
TEXT
  5
2BB7
  8
DIMENSIONS
 10
26.323150834993559
 20
19.687826027949338
 30
0.0
 40
0.2
  1
5
  0
TEXT
  5
2BB8
  8
DIMENSIONS
 10
25.323150834993569
 20
19.687826027949338
 30
0.0
 40
0.2
  1
4
  0
LINE
  5
2BB9
  8
CENTER_FOOT
 10
25.401849271368079
 20
19.29727124187793
 30
0.0
 11
25.401849271368079
 21
19.54727124187793
 31
0.0
  0
LINE
  5
2BBA
  8
CENTER_FOOT
 10
26.401849271368071
 20
19.29727124187793
 30
0.0
 11
26.401849271368071
 21
19.54727124187793
 31
0.0
  0
TEXT
  5
2BBB
  8
DIMENSIONS
 10
27.323150834993569
 20
19.687826027949338
 30
0.0
 40
0.2
  1
6
  0
LINE
  5
2BBC
  8
CENTER_FOOT
 10
27.401849271368071
 20
19.29727124187793
 30
0.0
 11
27.401849271368071
 21
19.54727124187793
 31
0.0
  0
TEXT
  5
2BBD
  8
DIMENSIONS
 10
16.887401717052811
 20
3.1394482207648902
 30
0.0
 40
0.36
  1
LEVEL 4
 41
0.55
  7
ARIAL
  0
TEXT
  5
2BBE
  8
DIMENSIONS
 10
17.481777822810422
 20
4.9232943125000608
 30
0.0
 40
0.36
  1
LEVEL 3
 41
0.55
  7
ARIAL
  0
TEXT
  5
2BBF
  8
DIMENSIONS
 10
17.893274575736861
 20
5.5757489479145468
 30
0.0
 40
0.36
  1
LEVEL 2
 41
0.55
  7
ARIAL
  0
TEXT
  5
2BC0
  8
DIMENSIONS
 10
19.127764723115529
 20
7.0834339408071543
 30
0.0
 40
0.36
  1
LEVEL 1
 41
0.55
  7
ARIAL
  0
TEXT
  5
2BC1
  8
DIMENSIONS
 10
16.887401717052811
 20
8.4172166160436461
 30
0.0
 40
0.36
  1
LEVEL 4
 41
0.55
  7
ARIAL
  0
TEXT
  5
2BC2
  8
DIMENSIONS
 10
17.481777822810422
 20
10.20106270777881
 30
0.0
 40
0.36
  1
LEVEL 3
 41
0.55
  7
ARIAL
  0
TEXT
  5
2BC3
  8
DIMENSIONS
 10
17.893274575736861
 20
10.8535173431933
 30
0.0
 40
0.36
  1
LEVEL 2
 41
0.55
  7
ARIAL
  0
TEXT
  5
2BC4
  8
DIMENSIONS
 10
19.127764723115529
 20
12.36120233608591
 30
0.0
 40
0.36
  1
LEVEL 1
 41
0.55
  7
ARIAL
  0
TEXT
  5
2BC5
  8
DIMENSIONS
 10
1.662022749979954
 20
3.5507726896013589
 30
0.0
 40
0.36
  1
A
 41
0.55
  7
ARIAL
  0
TEXT
  5
2BC6
  8
DIMENSIONS
 10
13.80117623720553
 20
3.4593672599279439
 30
0.0
 40
0.36
  1
B
 41
0.55
  7
ARIAL
  0
TEXT
  5
2BC7
  8
DIMENSIONS
 10
7.034341165484391
 20
0.8771637127765644
 30
0.0
 40
0.36
  1
TOP VIEWS
 41
0.55
  7
ARIAL
  0
TEXT
  5
2BC8
  8
DIMENSIONS
 10
23.49421027993592
 20
2.225393853418566
 30
0.0
 40
0.36
  1
SIDE VIEWS
 41
0.55
  7
ARIAL
  0
LINE
  5
2BC9
  8
BORDER
 10
16.25
 20
0.5
 30
0.0
 11
16.25
 21
20.5
 31
0.0
  0
TEXT
  5
2BCA
  8
DIMENSIONS
 10
18.533388505957301
 20
3.5964753691319649
 30
0.0
 40
0.36
  1
A
 41
0.55
  7
ARIAL
  0
TEXT
  5
2BCB
  8
DIMENSIONS
 10
30.67254199318289
 20
3.5050699394585498
 30
0.0
 40
0.36
  1
B
 41
0.55
  7
ARIAL
  0
TEXT
  5
2BCC
  8
DIMENSIONS
 10
18.5333886173579
 20
8.8065850017409542
 30
0.0
 40
0.36
  1
B
 41
0.55
  7
ARIAL
  0
TEXT
  5
2BCD
  8
DIMENSIONS
 10
30.512515484344849
 20
8.8522877518837504
 30
0.0
 40
0.36
  1
A
 41
0.55
  7
ARIAL
  0
INSERT
  5
2BCE
  8
DIMENSIONS
  2
*U9
 10
0.0
 20
0.0
 30
0.0
  0
DIMENSION
  5
2BCF
  8
DIMENSIONS
  2
*D1
 10
13.02661697924643
 20
19.276011089787321
 30
0.0
 11
13.02661697924642
 21
17.378258847720119
 31
0.0
 70
   128
 13
11.99261174542398
 23
15.27601108978728
 33
0.0000000000000029
 14
11.99261174542398
 24
19.276011089787321
 34
0.0000000000000029
 50
90.0
  0
DIMENSION
  5
2BDC
  8
DIMENSIONS
  2
*D2
 10
30.727019054941341
 20
12.529061768260711
 30
0.0
 11
30.72701905494133
 21
11.65930500723827
 31
0.0
 70
   128
 13
30.1589660222022
 23
10.529061768260711
 33
0.0
 14
28.603214969378879
 24
12.529061768260711
 34
0.0
 50
90.0
  0
ENDSEC
  0
EOF
